Ссылка на приватное зеркало нашего сайта всего за 1$. Внимание количество ограничено!!!

2 сезон

iTunes

1 сезон

1

2 сезон

2 сезон

iTunes

1 сезон

RePack

30

Ultimate

ВАЖНО

ИГРА 18+

pack

RePack

MK11
pack

Забери бонус

RePack

jed

!!Акция!!

Alien_Rage

RePack

fifa19

RePack

Assassins Creed: Odyssey

RePack

NEED FOR SPEED™ PAYBACK

4 сезон

9 сезон

Бесстыжие 9 сезон

Все сериалы

все сериалы на PB.wtf

RePack

FAR CRY 5
  

Блант без обиняков / Блант говорит / Blunt Talk / Сезон: 1 / Серии 1-10 из 10 (Тристрам Шапиро, Билл Д’Элиа) [2015, комедия, WEB-DL 1080p] [MVO] (AlexFilm) pb.wtf

Блант без обиняков через торрент pb.wtf

Размер: 11.59 GB | Добавлен: 5 лет назад | Торрент скачан:70 раз
Скачать  

30-10-2015 20:23 Блант без обиняков Скачать торрент  

Блант без обиняков / Блант говорит / Blunt Talk
Год выхода: 2015
Жанр: комедия
Страна: США
Продолжительность: ~ 00:30:00
Перевод: Профессиональный (многоголосый закадровый) | AlexFilm
Субтитры: нет

Режиссер: Тристрам Шапиро, Билл Д’Элиа

В ролях: Патрик Стюарт, Эдриан Скарборо, Тимм Шарп, Джеки Уивер, Долли Уэллс, Каран Сони и другие

Описание: Эксцентричный британский телеведущий Уолтер Блант переезжает в Лос-Анджелес вместе со своим слугой-алкоголиком и багажом из нескольких неудачных браков, чтобы вести собственное ток-шоу, в котором Блант пытается давать американцам мудрые на его взгляд советы о правильном образе жизни, мыслях и поведении, хотя самого Уолтера трудно назвать примером для подражания.



Файл
Качество: WEB-DL 1080p
Формат: MKV
Видео кодек: AVC
Аудио кодек: AC3
Видео: 1916x1076 (16:9), 23.976 fps, MPEG-4 AVC ~4900 kbps avg, 0.101 bit/pixel
Аудио Rus: 48 kHz, AC3 Dolby Digital, 3/2 (L,C,R,l,r) + LFE ch, ~384.00 kbps [AlexFilm]
Аудио Eng: 48 kHz, AC3 Dolby Digital, 3/2 (L,C,R,l,r) + LFE ch, ~384.00 kbps [Eng]
Complete name : M:\Torrents\video\Blunt Talk - Season 1 (AlexFilm) WEB-DL 1080p\Blunt.Talk.s01e04.WEB-DL.1080p.Rus.Eng.AlexFilm.mkv
Format : Matroska
Format version : Version 4 / Version 2
File size : 1.13 GiB
Duration : 27mn 25s
Overall bit rate : 5 876 Kbps
Encoded date : UTC 2015-09-25 12:01:58
Writing application : mkvmerge v6.1.0 ('Old Devil') built on Mar 4 2013 09:10:42
Writing library : libebml v1.3.0 + libmatroska v1.4.0

Video
ID : 1
Format : AVC
Format/Info : Advanced Video Codec
Format profile : High@L4
Format settings, CABAC : Yes
Format settings, ReFrames : 4 frames
Codec ID : V_MPEG4/ISO/AVC
Duration : 27mn 25s
Bit rate : 4 991 Kbps
Width : 1 916 pixels
Height : 1 076 pixels
Display aspect ratio : 16:9
Frame rate mode : Constant
Frame rate : 23.976 fps
Color space : YUV
Chroma subsampling : 4:2:0
Bit depth : 8 bits
Scan type : Progressive
Bits/(Pixel*Frame) : 0.101
Stream size : 979 MiB (85%)
Language : English
Default : Yes
Forced : No
Color range : Limited
Color primaries : BT.709
Transfer characteristics : BT.709
Matrix coefficients : BT.709

Audio #1
ID : 2
Format : AC-3
Format/Info : Audio Coding 3
Mode extension : CM (complete main)
Format settings, Endianness : Big
Codec ID : A_AC3
Duration : 27mn 25s
Bit rate mode : Constant
Bit rate : 384 Kbps
Channel(s) : 6 channels
Channel positions : Front: L C R, Side: L R, LFE
Sampling rate : 48.0 KHz
Compression mode : Lossy
Stream size : 75.3 MiB (7%)
Title : DD 5.1 AlexFilm
Language : Russian
Default : Yes
Forced : No

Audio #2
ID : 3
Format : AC-3
Format/Info : Audio Coding 3
Mode extension : CM (complete main)
Format settings, Endianness : Big
Codec ID : A_AC3
Duration : 27mn 25s
Bit rate mode : Constant
Bit rate : 384 Kbps
Channel(s) : 6 channels
Channel positions : Front: L C R, Side: L R, LFE
Sampling rate : 48.0 KHz
Compression mode : Lossy
Stream size : 75.3 MiB (7%)
Title : Eng
Language : English
Default : No
Forced : No
pb.wtf



Скачать Блант без обиняков через торрент http://i65.fastpic.ru/big/2015/0918/73/ff5fcebdf153c6cfcd91009bc30fdc73.png Скачать фильм Блант без обиняков через торрент бесплантно в хорошем качестве Описание: Эксцентричный британский телеведущий Уолтер Блант переезжает в Лос-Анджелес вместе со своим слугой-алкоголиком и багажом из ... 7.8 10 4
Info! Золотая раздача, скачанное не засчитывается.
Торрент: Зарегистрирован [2015-10-30 20:23] · скачан: 70 раз
Статус: √ проверено
Размер: 11.59 GB
Как cкачать? Как скачать Блант без обиняков через торрент | qTorrent

% Раздел Тема Автор DL S | L
Зарубежные сериалы [ 16.12 GB ] Блант без обиняков / Блант говорит / Blunt Talk / Сезон: 2 / Серии 1-10 из 10 [2016 HDTVRip 1080p] [MVO] killermax2013 Скачать
1 | 0
Зарубежные сериалы [ 3.58 GB ] Блант без обиняков / Блант говорит / Blunt Talk / Сезон: 1 / Серии 1-10 из 10 [2015 HDTVRip] [MVO] killermax2013 Скачать
1 | 0

28-11-2019 20:33  

Отключить всю рекламу на сайте

31-10-2015 13:18 Блант без обиняков Скачать торрент  

наконец в качестве отличный сериал.отдыхаю под него!!!pb.wtf



31-10-2015 13:20 Блант без обиняков Скачать торрент  

kpuctaluk писал(а):

наконец в качестве отличный сериал.отдыхаю под него!!!

Рекомендую тогда и этот глянуть Ты, я и апокалипсис / You, Me and the Apocalypse / Сезон: 1 / Серии 1-10 из 10 pb.wtf



    Дорогой пользователь! Огромная просьба, поблагодарите релизера, оцените раздачу и оставьте свои комментарий, если Вы скачали Блант без обиняков через торрент бесплатно! Внесите свою лепту в развитие PiratBit!
    Комментировать посты могут только пользователи прошедшие не сложную регистрацию
    Показать сообщения:    

    Блант без обиняков через торрент
    Скачать бесплатно Блант без обиняков
    Блант без обиняков скачать торрент
    Блант без обиняков смотреть онлайн
    Cкачать фильм Блант без обиняков бесплатно
    Блант без обиняков скачать торрент в хорошем качестве
    Блант без обиняков смотреть онлайн бесплатно в хорошем качестве


    Вы не можете начинать темы
    Вы не можете отвечать на сообщения
    Вы не можете редактировать свои сообщения
    Вы не можете удалять свои сообщения
    Вы не можете голосовать в опросах
    Вы не можете прикреплять файлы к сообщениям
    Вы можете скачивать файлы