Ссылка на приватное зеркало всего за 1$. Внимание количество ограничено!!!

OK

1+1

iTunes

мы

OK

1

WEB-DLRip

Джокер

Пифагор

Ведьмак / The Witcher сериал

iTunes

ПШазам

ОК

Оно 2

iTunes

30
pack

Вам бонус

ВАЖНО

!!Акция!!

Alien_RageХит недели

RePack

Resident Evil 21

ИГРА 18+

pack

RePack

jed

RePack

fifa19

RePack

Assassins Creed: Odyssey

RePack

NEED FOR SPEED™ PAYBACK

4 сезон

9 сезон

Бесстыжие 9 сезон

Все сериалы

все сериалы на PB.wtf

RePack

FAR CRY 5
  

Ускорение / Momentum (Стивен С. Кампанелли / Stephen S. Campanelli) [2015, боевик, триллер, BDRip-AVC от potroks] DUB Лицензия pb.wtf

Ускорение через торрент pb.wtf

Размер: 1.46 GB | Добавлен: 4 года 1 мес. назад | Торрент скачан:334 раза
Скачать  

31-10-2015 06:50 Ускорение Скачать торрент  

Ускорение / Momentum
Год выпуска: 2015
Страна: ЮАР, США / Azari Media, Thaba Media
Жанр: боевик, триллер
Продолжительность: 01:35:48
Перевод: Дубляж [BD RUS]
Субтитры: английские
Навигация по главам: есть
Режиссер: Стивен С. Кампанелли / Stephen S. Campanelli
В ролях:

Ольга Куриленко (Alex Farraday), Морган Фриман (Senator), Джеймс Пьюрфой (Mr. Washington), Дженна Сарас (Jessica), Ли-Энн Саммерс (Penny), Мэриэн Фризелл (Senator's Associate), Сабина Палфи (Newscaster), Лиза Леонард (Lisa), Карл Танинг (Doug MacArthur), Эбби Уэйим (Officer in charge), Дилан Эди (Black Hat), Шелли Николь (Ms. Clinton)
Описание: Алекс, опытная воровка, соглашается совершить свое последнее ограбление... Но все идет не по плану. Теперь ей - красивой, сильной и безжалостной femme fatale - угрожает опасность. И неудачное ограбление - не единственная проблема. Она перешла дорогу секретному международному синдикату, который ищет нечто более ценное, чем бриллианты. С этого момента для Алекс единственный способ спастись - бежать. И как можно быстрее

Качество: BDRip-AVC
Формат: MKV
Видео кодек: AVC
Аудио кодек: AC3
Видео: 1012x424 (2.40:1), 1736 kbps, 23,976 fps, 0,169 bit/pixel
Аудио: AC3 / 5.1 / 48 kHz / 448 kbps / 16 bit

Релиз группы:
Автор рипа: potroks

Код:

General
Unique ID                   : 189326293139378633451499160310351336223 (0x8E6EEAEFCF214C8B97F0CF04A943131F)
Complete name               : Uskoreniye.2015.RUS.BDRip.x264.-HELLYWOOD.mkv
Format                      : Matroska
Format version              : Version 4 / Version 2
File size                   : 1.46 GiB
Duration                    : 1h 35mn
Overall bit rate            : 2 184 Kbps
Movie name                  : Momentum (2015) - HELLYWOOD
Encoded date                : UTC 2010-02-22 21:41:31
Writing application         : mkvmerge v5.8.0 ('No Sleep / Pillow') built on Sep 30 2012 10:57:14
Writing library             : libebml v1.3.0 + libmatroska v1.4.0

Video
ID                          : 1
Format                      : AVC
Format/Info                 : Advanced Video Codec
Format profile              : High@L4.1
Format settings, CABAC      : Yes
Format settings, ReFrames   : 11 frames
Codec ID                    : V_MPEG4/ISO/AVC
Duration                    : 1h 35mn
Bit rate                    : 1 736 Kbps
Width                       : 1 012 pixels
Height                      : 424 pixels
Display aspect ratio        : 2.40:1
Frame rate mode             : Constant
Frame rate                  : 23.976 fps
Color space                 : YUV
Chroma subsampling          : 4:2:0
Bit depth                   : 8 bits
Scan type                   : Progressive
Bits/(Pixel*Frame)          : 0.169
Stream size                 : 1.13 GiB (78%)
Writing library             : x264 core 146 r2538 121396c
Encoding settings           : cabac=1 / ref=11 / deblock=1:-2:-2 / analyse=0x3:0x113 / me=umh / subme=11 / psy=1 / psy_rd=1.00:0.05 / mixed_ref=1 / me_range=48 / chroma_me=1 / trellis=2 / 8x8dct=1 / cqm=0 / deadzone=21,11 / fast_pskip=0 / chroma_qp_offset=-3 / threads=9 / lookahead_threads=2 / sliced_threads=0 / nr=0 / decimate=0 / interlaced=0 / bluray_compat=0 / constrained_intra=0 / bframes=12 / b_pyramid=2 / b_adapt=2 / b_bias=0 / direct=3 / weightb=1 / open_gop=0 / weightp=2 / keyint=250 / keyint_min=23 / scenecut=40 / intra_refresh=0 / rc_lookahead=60 / rc=2pass / mbtree=0 / bitrate=1736 / ratetol=1.0 / qcomp=0.70 / qpmin=0 / qpmax=69 / qpstep=4 / cplxblur=20.0 / qblur=0.5 / vbv_maxrate=14000 / vbv_bufsize=14000 / nal_hrd=none / filler=0 / ip_ratio=1.35 / pb_ratio=1.25 / aq=1:0.80
Language                    : English
Default                     : Yes
Forced                      : No

Audio
ID                          : 2
Format                      : AC-3
Format/Info                 : Audio Coding 3
Mode extension              : CM (complete main)
Format settings, Endianness : Big
Codec ID                    : A_AC3
Duration                    : 1h 35mn
Bit rate mode               : Constant
Bit rate                    : 448 Kbps
Channel(s)                  : 6 channels
Channel positions           : Front: L C R, Side: L R, LFE
Sampling rate               : 48.0 KHz
Compression mode            : Lossy
Stream size                 : 307 MiB (21%)
Title                       : Dub | DD 5.1 @ 448 kbps - Blu-Ray RUS
Language                    : Russian
Default                     : Yes
Forced                      : No

Text
ID                          : 3
Format                      : UTF-8
Codec ID                    : S_TEXT/UTF8
Codec ID/Info               : UTF-8 Plain Text
Language                    : English
Default                     : No
Forced                      : No

Menu
00:00:00.000                : en:(01)00:00:00:000
00:11:59.427                : en:(02)00:11:59:427
00:23:04.424                : en:(03)00:23:04:424
00:33:35.638                : en:(04)00:33:35:638
00:43:34.695                : en:(05)00:43:34:695
00:54:18.964                : en:(06)00:54:18:964
01:02:51.392                : en:(07)01:02:51:392
01:14:14.867                : en:(08)01:14:14:867
01:28:55.705                : en:(09)01:28:55:705

pb.wtf



Скачать Ускорение через торрент http://i74.fastpic.ru/big/2015/1031/69/44b3acc975fb831f2e1ad4102d1bcf69.png Скачать фильм Ускорение через торрент бесплантно в хорошем качестве Описание: Алекс, опытная воровка, соглашается совершить свое последнее ограбление... Но все идет не по плану. Теперь ей - красивой, ... 9.9 10 14
Торрент: Зарегистрирован [2015-12-09 15:41] · скачан: 334 раз
Статус: √ проверено
Размер: 1.46 GB
Как cкачать? Как скачать Ускорение через торрент | qTorrent

% Раздел Тема Автор DL S | L
Фильмы 2015 [DVDrip, WEB-DLRip, HDrip] [ 1.46 GB ] Ускорение / Momentum [2015 BDRip] DUB Twi7ter Скачать
2 | 0
Фильмы 2015 [DVDrip, WEB-DLRip, HDrip] [ 2.18 GB ] Ускорение / Momentum [2015 ЮАР BDRip-AVC от sokol_ok] DUB sokol_ok Скачать
2 | 0
Фильмы 2015 [DVDrip, WEB-DLRip, HDrip] [ 1.45 GB ] Ускорение / Momentum [2015 ЮАР BDRip-AVC от sokol_ok] DUB sokol_ok Скачать
2 | 0
Фильмы 2015 [DVDrip, WEB-DLRip, HDrip] [ 2.18 GB ] Ускорение / Momentum [2015 BDRip-AVC] DUB potroks Скачать
1 | 0


Последний раз редактировалось: potroks (2015-12-09 15:41), всего редактировалось 1 раз

28-11-2019 20:33  

Отключить всю рекламу на сайте

06-12-2015 08:49 Ускорение Скачать торрент  

Классный фильм посмотрел с удовольствиемpb.wtf



09-12-2015 15:42 Ускорение Скачать торрент  

замена звука на лицензиюpb.wtf



    Дорогой пользователь! Огромная просьба, поблагодарите релизера, оцените раздачу и оставьте свои комментарий, если Вы скачали Ускорение через торрент бесплатно! Внесите свою лепту в развитие PiratBit!
    Комментировать посты могут только пользователи прошедшие не сложную регистрацию
    Показать сообщения:    

    Ускорение через торрент
    Скачать бесплатно Ускорение
    Ускорение скачать торрент
    Ускорение смотреть онлайн
    Cкачать фильм Ускорение бесплатно
    Ускорение скачать торрент в хорошем качестве
    Ускорение смотреть онлайн бесплатно в хорошем качестве


    Вы не можете начинать темы
    Вы не можете отвечать на сообщения
    Вы не можете редактировать свои сообщения
    Вы не можете удалять свои сообщения
    Вы не можете голосовать в опросах
    Вы не можете прикреплять файлы к сообщениям
    Вы можете скачивать файлы