Всегда рабочее зеркало просто перед .vidak.icu напиши любое слово или цифру, Пример http://e3k.vidak.icu

>

7.4

iTunes

7.4

2 сезон

9.4

1 сезон

1

7.4

2 сезон

7.2

iTunes

6.0

MVO

13

6.1

iTunes

8.3

Пиратка

30

ULTIMATE

pack

9.9

Лицензия

ВАЖНО

ИГРА 18+

pack

7.3

RePack

MK11

7.7

RePack

jed

7.8

RePack

fifa19

8.5

RePack

RDR2

RePack

NEED FOR SPEED™ PAYBACK

1 сезон

9 сезон

Бесстыжие 9 сезон

Все сериалы

все сериалы на PB.wtf

RePack

FAR CRY 5

Anonymous, добрый день, мы катастрофически не успеваем собрать деньги на оплату серверов, помогите нам пожалуйста 5,10,15р., для нас важна любая помощь . В качестве благодарности мы отключим Вам всю рекламу на сайте (укажите свой ник в строку Ваше имя)!

×
  
Magnet ссылка

Агенты А.Н.К.Л. / The Man from U.N.C.L.E. (Гай Ричи) [2015, боевик, комедия, приключения, WEB-DLRip, Авторский (Doctor Joker) pb.wtf

Агенты А.Н.К.Л. через торрент pb.wtf

Размер: 2.05 GB | Добавлен: 6 лет 2 мес. назад | Торрент скачан:23 раза
Смотреть онлайн Агенты А.Н.К.Л. | Скачать    Ребята, помогите собрать деньги на оплату серверов!!!

31-10-2015 18:48 Агенты А.Н.К.Л. Скачать торрент  


Агенты А.Н.К.Л. / The Man from U.N.C.L.E.
««Герои высшего класса»»

ИНФОРМАЦИЯ:
Год выпуска:2015
Страна: США, Великобритания
Жанр: боевик, комедия, приключения
Продолжительность: 01:56:26
Перевод: Авторский (Doctor Joker)
Режиссер: Гай Ричи

В Ролях:


Генри Кавилл (Solo), Арми Хаммер (Illya), Алисия Викандер (Gaby), Элизабет Дебики (Victoria), Хью Грант (Waverly), Лука Кальвани (Alexander), Сильвестр Грот (Uncle Rudi), Джаред Харрис (Sanders), Кристиан Беркель (Udo), Миша Кузнецов (Oleg), Гай Уильямс (Captain Smith), Марианна Ди Мартино (Desk Clerk)

Описание:
Наполеон Соло - агент ЦРУ, на счету которого огромное количество успешно проведенных операций. Он считается одним из лучших секретных агентов во всем мире, и с ним может сравниться только один человек - самый молодой и перспективный агент КГБ, Илья Курякин. Их противостояние переросло в настоящую войну, в которой никто не собирается уступать. Однако обстоятельства складываются так, что непримиримые враги вынуждены стать напарниками. Это происходит после того как спецслужбы двух стран обнаруживают международную преступную организацию, которой удалось создать ядерную бомбу...

  • Мировая премьера:2 августа 2015

    ТЕХ.ДАННЫЕ:
    Качество: WEB-DLRip
    Формат: AVI
    Видео: XviD, 720x304 (2.35:1), 1867 kbps, 23,976 fps, 0,356 bpp
    Аудио №1: AC3 / 5.1 / 48 kHz / 384 kbps / Русский
    Аудио №2: AC3 / 5.1 / 48 kHz / 256 kbps / Английский


    General
    Complete name : D:\Торенты\AgeHtY.AHKL.2015.A1.WEB-DLRip.2100Mb.Freerutor.avi
    Format : AVI
    Format/Info : Audio Video Interleave
    Format profile : OpenDML
    File size : 2.05 GiB
    Duration : 1h 56mn
    Overall bit rate : 2 526 Kbps
    Movie name : AgeHtY.AHKL.2015.A1.WEB-DLRip.2100Mb
    Writing application : VirtualDubMod 1.5.10.2 (build 2540/release)
    Original source form/Name : Movie

    Video
    ID : 0
    Format : MPEG-4 Visual
    Format profile : Advanced Simple@L5
    Format settings, BVOP : 2
    Format settings, QPel : No
    Format settings, GMC : No warppoints
    Format settings, Matrix : Default (MPEG)
    Codec ID : XVID
    Codec ID/Hint : XviD
    Duration : 1h 56mn
    Bit rate : 1 868 Kbps
    Width : 720 pixels
    Height : 304 pixels
    Display aspect ratio : 2.35:1
    Frame rate : 23.976 fps
    Color space : YUV
    Chroma subsampling : 4:2:0
    Bit depth : 8 bits
    Scan type : Progressive
    Compression mode : Lossy
    Bits/(Pixel*Frame) : 0.356
    Stream size : 1.52 GiB (74%)
    Writing library : XviD 1.2.1 (UTC 2008-12-04)

    Audio #1
    ID : 1
    Format : AC-3
    Format/Info : Audio Coding 3
    Mode extension : CM (complete main)
    Codec ID : 2000
    Duration : 1h 56mn
    Bit rate mode : Constant
    Bit rate : 384 Kbps
    Channel(s) : 6 channels
    Channel positions : Front: L C R, Side: L R, LFE
    Sampling rate : 48.0 KHz
    Bit depth : 16 bits
    Compression mode : Lossy
    Stream size : 320 MiB (15%)
    Alignment : Split accross interleaves
    Interleave, duration : 42 ms (1.00 video frame)
    Interleave, preload duration : 500 ms

    Audio #2
    ID : 2
    Format : AC-3
    Format/Info : Audio Coding 3
    Mode extension : CM (complete main)
    Codec ID : 2000
    Duration : 1h 56mn
    Bit rate mode : Constant
    Bit rate : 256 Kbps
    Channel(s) : 6 channels
    Channel positions : Front: L C R, Side: L R, LFE
    Sampling rate : 48.0 KHz
    Bit depth : 16 bits
    Compression mode : Lossy
    Stream size : 213 MiB (10%)
    Alignment : Split accross interleaves
    Interleave, duration : 42 ms (1.00 video frame)
    Interleave, preload duration : 500 ms
    Скриншоты:


    © Оформление by Ворон
    pb.wtf



  • Скачать Агенты А.Н.К.Л. через торрент https://pic1.kartinco.top/images/61/ordi9.jpg Скачать, смотреть онлайн Агенты А.Н.К.Л. бесплантно в хорошем качестве Описание: Наполеон Соло - агент ЦРУ, на счету которого огромное количество успешно проведенных операций. Он считается одним из лучших ... 10 10 2
    Торрент: Зарегистрирован [2015-10-31 18:50] · скачан: 23 раз
    Статус: √ проверено
    Размер: 2.05 GB
    Как cкачать? Как скачать Агенты А.Н.К.Л. через торрент | UTorrent

    % Раздел Тема Автор DL S | L
    Ultra HD (UHD: 2K, 4K, 8K) — видео сверхвысокой чёткости [ 21.28 GB ] Агенты А.Н.К.Л. / The Man from U.N.C.L.E. [2015 UHD WEBRip 2160p] [HDR] 4xAVO+DUB [] bober100 Скачать
    1 | 0
    Фильмы [HD 720p, 1080p] (Хороший звук DUB, MVO) [ 6.96 GB ] Агенты А.Н.К.Л. / The Man from U.N.C.L.E. [2015 BDRip 1080p HEVC ] 2xAVO+DUB [] bober100 Скачать
    1 | 0
    Фильмы с авторской озвучкой [ 1.45 GB ] Агенты А.Н.К.Л. / The Man from U.N.C.L.E. [2015 BDRip] [AVO] killermax2013 Скачать
    1 | 0
    Фильмы (WEB-DL 720p, 1080p) [ 4.25 GB ] Агенты А.Н.К.Л. / The Man from U.N.C.L.E. [2015 WEB-DL 1080p / ] Ворон Скачать
    1 | 0
    Фильмы с авторской озвучкой [ 2.15 GB ] Агенты А.Н.К.Л. / The Man from U.N.C.L.E. [2015 HDRip Авторский одноголосый "Д.Есарев"] coc900 Скачать
    1 | 0
    Фильмы (DVD фильмы) [ 5.57 GB ] Агенты А.Н.К.Л. / The Man from U.N.C.L.E. [2015 DVD9] R5 voovaz Скачать
    1 | 0
    Фильмы (DVD фильмы) [ 6.88 GB ] Агенты А.Н.К.Л. / The Man from U.N.C.L.E. [2015 DVD9 / Custom] DUB] Ворон Скачать
    1 | 0

    28-11-2019 20:33  

    Отключить всю рекламу на сайте

      Дорогой пользователь! Огромная просьба, поблагодарите релизера, оцените раздачу и оставьте свои комментарий, если Вы скачали Агенты А.Н.К.Л. через торрент бесплатно!
      Комментировать посты могут только пользователи прошедшие не сложную регистрацию
      Показать сообщения:    

      Агенты А.Н.К.Л. через торрент
      Скачать бесплатно Агенты А.Н.К.Л.
      Агенты А.Н.К.Л. скачать торрент
      Агенты А.Н.К.Л. смотреть онлайн
      Cкачать фильм Агенты А.Н.К.Л. бесплатно
      Агенты А.Н.К.Л. скачать торрент в хорошем качестве
      Агенты А.Н.К.Л. смотреть онлайн бесплатно в хорошем качестве


      Вы не можете начинать темы
      Вы не можете отвечать на сообщения
      Вы не можете редактировать свои сообщения
      Вы не можете удалять свои сообщения
      Вы не можете голосовать в опросах
      Вы не можете прикреплять файлы к сообщениям
      Вы можете скачивать файлы