Ссылка на приватное зеркало всего за 1$. Внимание количество ограничено!!!

iTunes

iTunes

iTunes

1

iTunes

iTunes

iTunes

iTunes

iTunes

30
pack

$ от Little Big

ВАЖНО

!!Акция!!

Alien_RageХит недели

RePack

Resident Evil 21

ИГРА 18+

pack

RePack

jed

!!Акция!!

Alien_Rage

RePack

fifa19

RePack

Assassins Creed: Odyssey

RePack

NEED FOR SPEED™ PAYBACK

4 сезон

9 сезон

Бесстыжие 9 сезон

Все сериалы

все сериалы на PB.wtf

RePack

FAR CRY 5
  

Воин (Алексей Андрианов) [2015, драма, спорт, WEB-DLRip, [Русский / iTunes] pb.wtf

Воин через торрент pb.wtf

Размер: 1.37 GB | Добавлен: 4 года 6 мес. назад | Торрент скачан:789 раз
Скачать  

01-11-2015 06:35 Воин Скачать торрент  


Воин
««Дерись за семью. Борись за любовь»»

ИНФОРМАЦИЯ:
Год выпуска:2015
Страна: Россия
Жанр: драма, спорт
Продолжительность: 01:27:05
Перевод: Не требуется [Русский / iTunes]
Режиссер: Алексей Андрианов

В Ролях:


Фёдор Бондарчук (Андрей Родин), Сергей Бондарчук (младший брат), Светлана Ходченкова (жена Вячеслава Родина), Владимир Яглыч (старший брат), Юрий Яковлев-Суханов (Коста), Александр Новин (Тоша), Александр Балуев (телеведущий), Мария Андреева (Дана), Владимир Селиванов (Амундсен), Екатерина Мельник (Алиса), Ульяна Куликова

Описание:
Фильм рассказывает драматическую историю двух братьев, профессиональных спортсменов по боям ММА. Это картина о долге и жизненных ценностях, показанных сквозь призму жизни братьев и их отца - крепких и гордых людей, фильм о семье, об обидах, которые мы носим в себе десятилетиями, о боли, которую мы причиняем подчас бездумно, и о прощении, которому всегда должно найтись место в наших сердцах.


ТЕХ.ДАННЫЕ:
Качество: WEB-DLRip
Формат: AVI
Видео: XviD, 720x304 (2.35:1), 2044 kbps, 25 fps, 0,374 bpp
Аудио: AC3, 6 ch, 384 Кбит/с / 48 kHz


General
Complete name : D:\Торенты\B0yH.2015.O.WEB-DLRip.avi
Format : AVI
Format/Info : Audio Video Interleave
File size : 1.37 GiB
Duration : 1h 27mn
Overall bit rate : 2 246 Kbps
Writing application : VirtualDubMod 1.5.10.3 | www.virtualdub-fr.org || (build 2550/release)
Writing library : VirtualDubMod build 2550/release

Video
ID : 0
Format : MPEG-4 Visual
Format profile : Advanced Simple@L5
Format settings, BVOP : 2
Format settings, QPel : No
Format settings, GMC : No warppoints
Format settings, Matrix : Default (MPEG)
Codec ID : XVID
Codec ID/Hint : XviD
Duration : 1h 27mn
Bit rate : 2 044 Kbps
Width : 720 pixels
Height : 304 pixels
Display aspect ratio : 2.35:1
Frame rate : 25.000 fps
Color space : YUV
Chroma subsampling : 4:2:0
Bit depth : 8 bits
Scan type : Progressive
Compression mode : Lossy
Bits/(Pixel*Frame) : 0.374
Stream size : 1.24 GiB (91%)
Writing library : XviD 1.2.1 (UTC 2008-12-04)

Audio
ID : 1
Format : AC-3
Format/Info : Audio Coding 3
Mode extension : CM (complete main)
Codec ID : 2000
Duration : 1h 27mn
Bit rate mode : Constant
Bit rate : 384 Kbps
Channel(s) : 6 channels
Channel positions : Front: L R
Sampling rate : 48.0 KHz
Bit depth : 16 bits
Compression mode : Lossy
Delay relative to video : 16ms
Stream size : 120 MiB (9%)
Alignment : Split accross interleaves
Interleave, duration : 40 ms (1.00 video frame)
Interleave, preload duration : 500 ms
Скриншоты:


© Оформление by Ворон
pb.wtf
!Ворон писал(а):

Замена на лицензию / iTunes



Скачать Воин через торрент http://pic.kartinco.top/images/6/ordi9.jpg Скачать фильм Воин через торрент бесплантно в хорошем качестве Описание: Фильм рассказывает драматическую историю двух братьев, профессиональных спортсменов по боям ММА. Это картина о долге и жизненных ... 8.9 10 51
Info! Золотая раздача, скачанное не засчитывается.
Торрент: Зарегистрирован [2015-11-04 06:48] · скачан: 789 раз
Статус: √ проверено
Размер: 1.37 GB
Как cкачать? Как скачать Воин через торрент | qTorrent

% Раздел Тема Автор DL S | L
Фильмы [HD 720p, 1080p] (Хороший звук DUB, MVO) [ 10.08 GB ] 13-й воин / 13th Warrior The [1999 BDRip ] PARKAN05 Скачать
1 | 1
Фильмы (Blu-ray, BD-Remux, HDDVD) [ 22.92 GB ] 13-й воин / The 13th Warrior [1999 BD-Remux DUB ] shuller Скачать
1 | 0
Фильмы 2009 [ 1.37 GB ] Мерантау / Merantau / << Воин Мерантау >> [2009 DVDRip] aspace Скачать
1 | 0
Азиатские фильмы [ 2.05 GB ] Дороро: Легенда о воине / Dororo [2007 ... DVDRip лицензия] Shmel Скачать
1 | 0
Фильмы 2009 [ 1.45 GB ] Воины света / Daybreakers [2009 HDRip-AVC DUB] -=Cherry=- Скачать
1 | 0
Action FPS (1st Person) [ 6.96 GB ] Sniper: Ghost Warrior / Снайпер. Воин-Призрак [лицензия ENG/MULTI6 Shooter Action TPS] Mr. Freeman Скачать
1 | 0
Фильмы до 2000 г. [ 1.37 GB ] Воин племени шайеннов / Cheyenne Warrior [1994 DVDRip VO] lexxus350 Скачать
1 | 0


Последний раз редактировалось: Ворон (2015-11-04 06:54), всего редактировалось 3 раз(а)

28-11-2019 20:33  

Отключить всю рекламу на сайте

01-11-2015 06:56 Воин Скачать торрент  

Судя по рейтингу, фильм хуже человеческой многоножки. Этакий отечественный копипаст Увебола. Мне кажется даже ТВ3 такое не покажетpb.wtf



01-11-2015 07:26 Воин Скачать торрент  

Ворон писал(а):

Фёдор Бондарчук (Андрей Родин), Сергей Бондарчук

Семейный подряд работает)))pb.wtf



01-11-2015 14:58 Воин Скачать торрент  

рейтинг чуть выше чем размер файла sarcastic
P.S. вот из за подобной лабуды правообладатели потом хотят закрывать трекерыpb.wtf



28-12-2015 16:57 Воин Скачать торрент  

Фильм полный отстой,как денег нежалко на это тратить снимать.pb.wtf



26-02-2016 18:43 Воин Скачать торрент  

слизали сценарий и сняли убожествоpb.wtf



    Дорогой пользователь! Огромная просьба, поблагодарите релизера, оцените раздачу и оставьте свои комментарий, если Вы скачали Воин через торрент бесплатно! Внесите свою лепту в развитие PiratBit!
    Комментировать посты могут только пользователи прошедшие не сложную регистрацию
    Показать сообщения:    

    Воин через торрент
    Скачать бесплатно Воин
    Воин скачать торрент
    Воин смотреть онлайн
    Cкачать фильм Воин бесплатно
    Воин скачать торрент в хорошем качестве
    Воин смотреть онлайн бесплатно в хорошем качестве


    Вы не можете начинать темы
    Вы не можете отвечать на сообщения
    Вы не можете редактировать свои сообщения
    Вы не можете удалять свои сообщения
    Вы не можете голосовать в опросах
    Вы не можете прикреплять файлы к сообщениям
    Вы можете скачивать файлы