Ссылка на приватное зеркало нашего сайта всего за 1$. Внимание количество ограничено!!!

2 сезон

iTunes

1 сезон

1

iTunes

iTunes

iTunes

1 сезон

RePack

30

ИГРА 18+

pack

ВАЖНО

!!Акция!!

Alien_RageХит недели

RePack

MK11
pack

Забери бонус

RePack

jed

!!Акция!!

Alien_Rage

RePack

fifa19

RePack

Assassins Creed: Odyssey

RePack

NEED FOR SPEED™ PAYBACK

4 сезон

9 сезон

Бесстыжие 9 сезон

Все сериалы

все сериалы на PB.wtf

RePack

FAR CRY 5
  

Эрагон / Eragon (Стефен Фэнгмейер ) [2006, фэнтези, боевик, приключения, BDRip 1080p от _denis_100 / NNNB] DUB, MVO, AVO pb.wtf

Эрагон через торрент pb.wtf

Размер: 7.76 GB | Добавлен: 4 года 11 мес. назад | Торрент скачан:165 раз
Скачать  

01-11-2015 10:22 Эрагон Скачать торрент  

Эрагон / Eragon
«Когда наступит тьма, последним защитником света станет дракон»


Год выпуска: 2006
Страна: США, Великобритания, Венгрия
Жанр: фэнтези, боевик, приключения, семейный
Продолжительность: 01:43:17
Перевод: Дублированный, Профессиональный многоголосый, Авторский (одноголосый)
Субтитры: русские, английские
Режиссер: Стефен Фэнгмейер
В ролях: Эдвард Спелирс , Джереми Айронс , Сиенна Гиллори , Роберт Карлайл , Джон Малкович , Гаррет Хедлунд , Алан Армстронг , Кристофер Иган , Гари Льюис , Джимон Хонсу , Рэйчел Вайс , Ричард Б. Рифкин
Описание:
Действие происходит в волшебной стране Алагезии, которую населяют эльфы, гномы и другие сказочные персонажи. Главный герой - 17-летний деревенский мальчишка Эрагон - последний из рода некогда могущественных драконьих всадников.
Однажды он находит драконье яйцо. Так, Эрагону суждено вырастить и воспитать дракониху Сапфиру; принять участие в великой войне; в поисках эльфийского города Эллесмеры пройти через невиданные земли, наполненные красотой и опасностью; сразиться с колдунами и чудовищами; спуститься к сердцу горы в королевство гномов, чтобы стать первым Свободным Воином, не зависящим ни от короля всадников, ни от вождя варденов.

PG - Рекомендуется присутствие родителей
Качество: BDRip 1080p
Контейнер (Расширение): MKV
Видео: 1920x818, 8580 Кбит/сек, 23,976 кадр/сек, 0,228 Бит/[Пиксели*Кадры]
Аудио №1: русский / AC3 / 5.1 / 48 kHz / 448 kbps / 16 bit |Дублированный|
Аудио №2: русский / AC3 / 5.1 / 48 kHz / 448 kbps / 16 bit |Профессиональный многоголосый, Киномания|
Аудио №3: русский / AC3 / 5.1 / 48 kHz / 640 kbps / 16 bit |Авторский, Ю.Немахов|
Аудио №4: английский / AC3 / 5.1 / 48 kHz / 640 kbps / 16 bit
Навигация по главам(Чаптеры): естьАвтор рипа: Сообщество:
  • Фильм снят по мотивам романа Кристофера Паолини «Эрагон» (Eragon, 2003).
  • Между сюжетами фильма и оригинального романа можно найти свыше 50 отличий.
  • Алексу Петтиферу (Громобой) была предложена роль Эрагона еще до кастинга, где принял участие Спелирс. Петтифер отказался от роли по той причине, что он боится летать на самолете, а «Эрагон» снимался в Будапеште.
  • Эдвард Спелирс оказался первым среди 180,000 претендентов на роль Эрагона во время конкурса, проведенном в Истборнском колледже.
  • Йену МакКеллену и Патрику Стюарту была предложена роль Брома, но их занятость в фильме «Люди Икс: Последняя битва» (2006) не позволила сняться в «Эрагоне».
  • Это были первые в жизни роли для Джосс Стоун и Эдварда Спелирса.
  • Гай Пирс был кандидатом на роль Дарзы.
  • Элайджа Вуд и Шайа ЛаБаф рассматривались на роль Эрагона.
  • Кристофер Паолини, автор оригинального романа, выразил желание появиться в фильме в камео, а именно исполнить роль обезглавленного во время сражения воина. Но не сложилось - он был занят Европейским туром своей книги.
  • В одной сцен Эрагону показывают резные закрытые доспехи для его дракона. В следующей же сцене Сапфира появляется в совершенно других доспехах.
  • Код:

    Format                                   : Matroska
    Format version                           : Version 2
    File size                                : 7.76 GiB
    Duration                                 : 1h 43mn
    Overall bit rate                         : 10.8 Mbps
    Movie name                               : Eragon.(2006).BDRip.1080p.[denis100]
    Encoded date                             : UTC 2015-11-01 08:01:46
    Writing application                      : mkvmerge v5.8.0 ('No Sleep / Pillow') built on Sep  2 2012 15:37:04
    Writing library                          : libebml v1.2.3 + libmatroska v1.3.0

    Video
    ID                                       : 1
    Format                                   : AVC
    Format/Info                              : Advanced Video Codec
    Format profile                           : High@L4.1
    Format settings, CABAC                   : Yes
    Format settings, ReFrames                : 5 frames
    Codec ID                                 : V_MPEG4/ISO/AVC
    Duration                                 : 1h 43mn
    Bit rate                                 : 8 580 Kbps
    Width                                    : 1 920 pixels
    Height                                   : 818 pixels
    Display aspect ratio                     : 2.35:1
    Frame rate                               : 23.976 fps
    Color space                              : YUV
    Chroma subsampling                       : 4:2:0
    Bit depth                                : 8 bits
    Scan type                                : Progressive
    Bits/(Pixel*Frame)                       : 0.228
    Stream size                              : 6.03 GiB (78%)
    Title                                    : Eragon.(2006).BDRip.1080p.[denis100]
    Writing library                          : x264 core 148 r2597 e86f3a1
    Encoding settings                        : cabac=1 / ref=5 / deblock=1:-3:-3 / analyse=0x3:0x133 / me=umh / subme=11 / psy=1 / psy_rd=1.00:0.10 / mixed_ref=1 / me_range=32 / chroma_me=1 / trellis=2 / 8x8dct=1 / cqm=0 / deadzone=21,11 / fast_pskip=0 / chroma_qp_offset=-3 / threads=6 / lookahead_threads=1 / sliced_threads=0 / nr=0 / decimate=1 / interlaced=0 / bluray_compat=0 / constrained_intra=0 / bframes=8 / b_pyramid=2 / b_adapt=2 / b_bias=0 / direct=3 / weightb=1 / open_gop=0 / weightp=2 / keyint=240 / keyint_min=23 / scenecut=40 / intra_refresh=0 / rc=2pass / mbtree=0 / bitrate=8580 / ratetol=1.0 / qcomp=0.60 / qpmin=0 / qpmax=69 / qpstep=4 / cplxblur=20.0 / qblur=0.5 / ip_ratio=1.40 / pb_ratio=1.30 / aq=1:1.00
    Language                                 : English
    Default                                  : Yes
    Forced                                   : No

    Audio #1
    ID                                       : 2
    Format                                   : AC-3
    Format/Info                              : Audio Coding 3
    Mode extension                           : CM (complete main)
    Codec ID                                 : A_AC3
    Duration                                 : 1h 43mn
    Bit rate mode                            : Constant
    Bit rate                                 : 448 Kbps
    Channel(s)                               : 6 channels
    Channel positions                        : Front: L C R, Side: L R, LFE
    Sampling rate                            : 48.0 KHz
    Bit depth                                : 16 bits
    Compression mode                         : Lossy
    Stream size                              : 331 MiB (4%)
    Title                                    : Дублированный
    Language                                 : Russian
    Default                                  : Yes
    Forced                                   : No

    Audio #2
    ID                                       : 3
    Format                                   : AC-3
    Format/Info                              : Audio Coding 3
    Mode extension                           : CM (complete main)
    Codec ID                                 : A_AC3
    Duration                                 : 1h 43mn
    Bit rate mode                            : Constant
    Bit rate                                 : 448 Kbps
    Channel(s)                               : 6 channels
    Channel positions                        : Front: L C R, Side: L R, LFE
    Sampling rate                            : 48.0 KHz
    Bit depth                                : 16 bits
    Compression mode                         : Lossy
    Stream size                              : 331 MiB (4%)
    Title                                    : Профессиональный (многоголосый, закадровый) Киномания
    Language                                 : Russian
    Default                                  : No
    Forced                                   : No

    Audio #3
    ID                                       : 4
    Format                                   : AC-3
    Format/Info                              : Audio Coding 3
    Mode extension                           : CM (complete main)
    Codec ID                                 : A_AC3
    Duration                                 : 1h 43mn
    Bit rate mode                            : Constant
    Bit rate                                 : 640 Kbps
    Channel(s)                               : 6 channels
    Channel positions                        : Front: L C R, Side: L R, LFE
    Sampling rate                            : 48.0 KHz
    Bit depth                                : 16 bits
    Compression mode                         : Lossy
    Stream size                              : 473 MiB (6%)
    Title                                    : Авторский, Ю.Немахов
    Language                                 : Russian
    Default                                  : No
    Forced                                   : No

    Audio #4
    ID                                       : 5
    Format                                   : AC-3
    Format/Info                              : Audio Coding 3
    Mode extension                           : CM (complete main)
    Codec ID                                 : A_AC3
    Duration                                 : 1h 43mn
    Bit rate mode                            : Constant
    Bit rate                                 : 640 Kbps
    Channel(s)                               : 6 channels
    Channel positions                        : Front: L C R, Side: L R, LFE
    Sampling rate                            : 48.0 KHz
    Bit depth                                : 16 bits
    Compression mode                         : Lossy
    Stream size                              : 473 MiB (6%)
    Language                                 : English
    Default                                  : No
    Forced                                   : No

    Text #1
    ID                                       : 6
    Format                                   : UTF-8
    Codec ID                                 : S_TEXT/UTF8
    Codec ID/Info                            : UTF-8 Plain Text
    Language                                 : Russian
    Default                                  : No
    Forced                                   : No

    Text #2
    ID                                       : 7
    Format                                   : UTF-8
    Codec ID                                 : S_TEXT/UTF8
    Codec ID/Info                            : UTF-8 Plain Text
    Language                                 : English
    Default                                  : No
    Forced                                   : No

    Menu
    00:00:00.000                             : en:00:00:00.000
    00:06:18.962                             : en:00:06:18.962
    00:08:56.161                             : en:00:08:56.161
    00:13:57.503                             : en:00:13:57.503
    00:17:14.617                             : en:00:17:14.617
    00:19:30.795                             : en:00:19:30.795
    00:25:55.721                             : en:00:25:55.721
    00:30:46.303                             : en:00:30:46.303
    00:35:46.311                             : en:00:35:46.311
    00:40:22.337                             : en:00:40:22.337
    00:44:05.309                             : en:00:44:05.309
    00:48:05.591                             : en:00:48:05.591
    00:51:19.243                             : en:00:51:19.243
    00:55:40.379                             : en:00:55:40.379
    01:00:26.957                             : en:01:00:26.957
    01:04:49.594                             : en:01:04:49.594
    01:09:20.948                             : en:01:09:20.948
    01:11:23.196                             : en:01:11:23.196
    01:17:40.531                             : en:01:17:40.531
    01:21:45.192                             : en:01:21:45.192
    01:23:26.752                             : en:01:23:26.752
    01:29:38.206                             : en:01:29:38.206
    01:31:50.046                             : en:01:31:50.046
    01:36:43.339                             : en:01:36:43.339

    x264 [info]: frame I:1051 Avg QP:16.81 size:174031
    x264 [info]: frame P:38644 Avg QP:19.41 size: 75432
    x264 [info]: frame B:108890 Avg QP:21.79 size: 32548
    x264 [info]: consecutive B-frames: 5.3% 8.4% 11.6% 9.9% 3.9% 59.1% 1.0% 0.1% 0.5%
    pb.wtf



    Скачать Эрагон через торрент http://i65.fastpic.ru/big/2015/1101/c7/755f134e66c795faf2930e9542b1fac7.png Скачать фильм Эрагон через торрент бесплантно в хорошем качестве Описание:Действие происходит в волшебной стране Алагезии, которую населяют эльфы, гномы и другие сказочные персонажи. Главный герой - ... 10 10 2
    Info! Золотая раздача, скачанное не засчитывается.
    Торрент: Зарегистрирован [2015-11-01 10:22] · скачан: 165 раз
    Статус: √ проверено
    Размер: 7.76 GB
    Как cкачать? Как скачать Эрагон через торрент | qTorrent

    28-11-2019 20:33  

    Отключить всю рекламу на сайте

      Дорогой пользователь! Огромная просьба, поблагодарите релизера, оцените раздачу и оставьте свои комментарий, если Вы скачали Эрагон через торрент бесплатно! Внесите свою лепту в развитие PiratBit!
      Комментировать посты могут только пользователи прошедшие не сложную регистрацию
      Показать сообщения:    

      Эрагон через торрент
      Скачать бесплатно Эрагон
      Эрагон скачать торрент
      Эрагон смотреть онлайн
      Cкачать фильм Эрагон бесплатно
      Эрагон скачать торрент в хорошем качестве
      Эрагон смотреть онлайн бесплатно в хорошем качестве


      Вы не можете начинать темы
      Вы не можете отвечать на сообщения
      Вы не можете редактировать свои сообщения
      Вы не можете удалять свои сообщения
      Вы не можете голосовать в опросах
      Вы не можете прикреплять файлы к сообщениям
      Вы можете скачивать файлы