Ссылка на приватное зеркало нашего сайта всего за 1$. Внимание количество ограничено!!!

2 сезон

iTunes

1 сезон

1

2 сезон

2 сезон

iTunes

1 сезон

RePack

30

Ultimate

ВАЖНО

ИГРА 18+

pack

RePack

MK11
pack

Забери бонус

RePack

jed

!!Акция!!

Alien_Rage

RePack

fifa19

RePack

Assassins Creed: Odyssey

RePack

NEED FOR SPEED™ PAYBACK

4 сезон

9 сезон

Бесстыжие 9 сезон

Все сериалы

все сериалы на PB.wtf

RePack

FAR CRY 5
  

Реанимация / Code Black / Сезон: 1 / Серии 1-16 из 18 (Адам Кэйн, Крис Мисиано, Винс Мисиано) [2015 г., драма, WEB-DLRip 720p, Профессиональный многоголосый [BaibaKo]] pb.wtf

Реанимация через торрент pb.wtf

Размер: 22.76 GB | Добавлен: 4 года 9 мес. назад | Торрент скачан:4 раза
Скачать  

01-11-2015 14:09 Реанимация Скачать торрент  

Реанимация /1 Сезон/Серии 1-16 из 18 / Code Black
Год выпуска: 2015
Страна: США
Жанр: драма
Продолжительность: 42 мин.
Перевод: Профессиональный многоголосый [BaibaKo]
Реклама: В релизе присутствует реклама казино

Режиссер: Адам Кэйн, Крис Мисиано, Винс Мисиано
Продюссер: Корина Мерриан, Райан МакГэрри, Майкл Ситцман
Сценарий: Майкл Ситцман, Дэвид Маршалл Грант, Кори Эветт

Бюджет: 2015
Премьера в мире: 30 сентября 2015

IMDB 7.20 (1205)


В ролях: Анджела Релусио, Марша Гей Харден, Мелани Чандра, Бен Холлингсворт, Портер Харрис, Раза Джеффри, Бонни Соммервиль, Луис Гусман, Уильям Аллен Янг, Кевин Данн

Описание: Сериал рассказывает о сотрудниках скорой помощи лос-анджелесской больницы, которые оказывают помощь пациентам в весьма непростых условиях...
Медицинская драма о самой известной в США реанимации, где ошеломляющий приток пациентов может перевесить все возможные ресурсы, доступные врачам для срочного вмешательства. В центре этого контролируемого хаоса реанимации находится ординатура доктора Линн Рориш, которая является лучшим специалистом в области травмы критических случаев.

Качество: WEB-DLRip 720p
Формат: MKV
Видео кодек: AVC
Аудио кодек: AC3
Видео: AVC High@L3.1 3933 Кбит/сек 1276x720 (1.778) 23,976 кадра/сек
Аудио#1: AC3 384 Кбит/сек 6 каналов 48,0 КГц BaibaKo
Аудио#2: AC3 384 Кбит/сек 6 каналов 48,0 КГц English
Программа кодирования : mkvmerge v8.5.2 ('Crosses') 64bit
Библиотека кодирования : libebml v1.3.3 + libmatroska v1.4.4
DURATION : 00:43:04.416000000
NUMBER_OF_FRAMES : 80763
NUMBER_OF_BYTES : 124051968
_STATISTICS_WRITING_APP : mkvmerge v8.5.2 ('Crosses') 64bit
_STATISTICS_WRITING_DATE_UTC : 2016-01-31 15:04:31
_STATISTICS_TAGS : BPS DURATION NUMBER_OF_FRAMES NUMBER_OF_BYTES

Видео
Идентификатор : 1
Формат : AVC
Формат/Информация : Advanced Video Codec
Профиль формата : High@L3.1
Параметр CABAC формата : Нет
Параметр ReFrames формата : 2 кадра
Идентификатор кодека : V_MPEG4/ISO/AVC
Продолжительность : 43 м.
Битрейт : 3859 Кбит/сек
Ширина : 1276 пикселей
Высота : 720 пикселей
Соотношение сторон : 16:9
Режим частоты кадров : Постоянный
Частота кадров : 23,976 кадра/сек
Цветовое пространство : YUV
Субдискретизация насыщенности : 4:2:0
Битовая глубина : 8 бит
Тип развёртки : Прогрессивная
Бит/(Пиксели*Кадры) : 0.175
Размер потока : 1,16 Гбайт (82%)
Библиотека кодирования : x264 core 148 r2638 7599210
Настройки программы : cabac=1 / ref=3 / deblock=1:0:0 / analyse=0x3:0x113 / me=hex / subme=7 / psy=1 / psy_rd=1.00:0.00 / mixed_ref=1 / me_range=16 / chroma_me=1 / trellis=1 / 8x8dct=1 / cqm=0 / deadzone=21,11 / fast_pskip=1 / chroma_qp_offset=-2 / threads=12 / lookahead_threads=2 / sliced_threads=0 / nr=0 / decimate=1 / interlaced=0 / bluray_compat=0 / constrained_intra=0 / bframes=3 / b_pyramid=2 / b_adapt=1 / b_bias=0 / direct=1 / weightb=1 / open_gop=0 / weightp=2 / keyint=240 / keyint_min=23 / scenecut=40 / intra_refresh=0 / rc_lookahead=40 / rc=2pass / mbtree=1 / bitrate=3859 / ratetol=1.0 / qcomp=0.60 / qpmin=0 / qpmax=69 / qpstep=4 / cplxblur=20.0 / qblur=0.5 / ip_ratio=1.40 / aq=1:1.00
Default : Нет
Forced : Нет
Цветовой диапазон : Limited
Основные цвета : BT.709
Характеристики трансфера : BT.709
Коэффициенты матрицы : BT.709

Аудио #1
Идентификатор : 2
Формат : AC-3
Формат/Информация : Audio Coding 3
Расширение режима : CM (complete main)
Параметр Endianness формата : Big
Идентификатор кодека : A_AC3
Продолжительность : 43 м.
Вид битрейта : Постоянный
Битрейт : 384 Кбит/сек
Каналы : 6 каналов
Расположение каналов : Front: L C R, Side: L R, LFE
Частота : 48,0 КГц
Метод сжатия : С потерями
Размер потока : 118 Мбайт (8%)
Язык : Russian
Default : Да
Forced : Нет

Аудио #2
Идентификатор : 3
Формат : AC-3
Формат/Информация : Audio Coding 3
Расширение режима : CM (complete main)
Параметр Endianness формата : Big
Идентификатор кодека : A_AC3
Продолжительность : 43 м.
Вид битрейта : Постоянный
Битрейт : 384 Кбит/сек
Каналы : 6 каналов
Расположение каналов : Front: L C R, Side: L R, LFE
Частота : 48,0 КГц
Метод сжатия : С потерями
Размер потока : 118 Мбайт (8%)
Язык : English
Default : Нет
Forced : Нет
Релиз от: BaibaKo.tv




Реанимация /Code Black скачать торрент


Внимание! Раздача ведётся путём добавления новых серий; при каждом добавлении создётся новый торрент. Чтобы начать докачку новой серии, пользователям необходимо сделать следующее:
  • Остановить скачивание,
  • Удалить старый торрент у себя из клиента (старые серии удалять не надо),
  • Скачать новый торрент и запустить его у себя в клиенте вместо старого, при этом указать клиенту путь в старую папку куда и должно происходить скачивание новых серий.
Ваш клиент при этом должен произвести хеширование (проверку) старой папки (если не производит сам - помогите ему сделать это), и будет докачивать только те серии которых у вас ещё нет. Старые серии при этом не удаляются, а продолжают раздаваться!

Eсли вы уже удалили старые серии, то предотвратить повторную закачку старых серий можно, отжав галочку в соответсвующих местах при запуске нового торрента. По возможности, желательно не удалять старые серии как можно дольше чтобы релизёр не столько продолжал раздавать старые серии, а смог сконцентрироваться на новых.


Добавлена 16 серия
pb.wtf



Скачать Реанимация через торрент http://pic.kartinco.top/images/11/gddgw.jpg Скачать фильм Реанимация через торрент бесплантно в хорошем качестве Описание: Сериал рассказывает о сотрудниках скорой помощи лос-анджелесской больницы, которые оказывают помощь пациентам в весьма непростых ... 8.8 10 15
Info! Золотая раздача, скачанное не засчитывается.
Торрент: Зарегистрирован [2016-02-16 04:19] · скачан: 4 раз
Статус: √ проверено
Размер: 22.76 GB
Как cкачать? Как скачать Реанимация через торрент | qTorrent



Последний раз редактировалось: nbantkmrf (2016-02-16 04:19), всего редактировалось 24 раз(а)

28-11-2019 20:33  

Отключить всю рекламу на сайте

27-11-2015 01:09 Реанимация Скачать торрент  

Цитата:

Видео: XviD Advanced Simple@L5 1500 Кбит/сек 720x400 (1.772) 23,976 кадра/сек
Аудио#1: MPEG-1 Audio layer 3 192 Кбит/сек 2 канала 48,0 КГц
Аудио#2: MPEG-1 Audio layer 3 192 Кбит/сек 2 канала 48,0 КГц

тех.данные явно не от данного релиза, замените пожалуйста.

Добавьте отчёт MediaInfo в оформление.
Как получить информацию по видеофайлу (отчёт MediaInfo)

Максимальный размер постера - 700пикс. по большей стороне, у вас 800x1200- замените.

Содержание спойлера "Раздача ведётся путём добавления новых серий" должно быть примерно следующим:

Код:

Внимание! Раздача ведётся путём добавления новых серий; при каждом добавлении создётся новый торрент. Чтобы начать докачку новой серии, пользователям необходимо сделать следующее:
[list][*] Остановить скачивание,
[*] Удалить старый торрент у себя из клиента (старые серии удалять не надо),
[*] Скачать новый торрент и запустить его у себя в клиенте вместо старого, при этом указать клиенту путь в старую папку куда и должно происходить скачивание новых серий.
[/list]
Ваш клиент при этом должен произвести хеширование (проверку) старой папки (если не производит сам - помогите ему сделать это), и будет докачивать только те серии которых у вас ещё нет. Старые серии при этом не удаляются, а продолжают раздаваться!

Eсли вы уже удалили старые серии, то предотвратить повторную закачку старых серий можно, отжав галочку в соответсвующих местах при запуске нового торрента. По возможности, желательно не удалять старые серии как можно дольше чтобы релизёр не столько продолжал раздавать старые серии, а смог сконцентрироваться на новых.

Об исправлении сообщите в лс со ссылкой на раздачу.pb.wtf



28-11-2015 06:52 Реанимация Скачать торрент  

ну и где же заявленная 8 серия???pb.wtf



08-12-2015 21:44 Реанимация Скачать торрент  

Сериалы про больницу все на одну тематику.ненравятся.pb.wtf



18-01-2016 01:15 Реанимация Скачать торрент  

В первом сезоне 18 серий..pb.wtf



18-01-2016 01:39 Реанимация Скачать торрент  

MicroCharmelle писал(а):

В первом сезоне 18 серий..

спасибо поправлю.pb.wtf



01-02-2016 18:53 Реанимация Скачать торрент  

nbantkmrf, шестая серия у вас почему-то 1080р.

Цитата:

Code.Black.s01e06.HD1080p.WEB-DL.Rus.Eng.BaibaKo.tv.mkv

Смешивать серии разного качества в одной раздаче запрещено.
Перезалейте.pb.wtf



01-02-2016 19:46 Реанимация Скачать торрент  

У Вас скриншоты 1280х720 вместо заявленных 1276x720pb.wtf



02-02-2016 18:37 Реанимация Скачать торрент  

То что Вы в тех.данных написали разрешение 1280x720 проблемы не решилоpb.wtf



    Дорогой пользователь! Огромная просьба, поблагодарите релизера, оцените раздачу и оставьте свои комментарий, если Вы скачали Реанимация через торрент бесплатно! Внесите свою лепту в развитие PiratBit!
    Комментировать посты могут только пользователи прошедшие не сложную регистрацию
    Показать сообщения:    

    Реанимация через торрент
    Скачать бесплатно Реанимация
    Реанимация скачать торрент
    Реанимация смотреть онлайн
    Cкачать фильм Реанимация бесплатно
    Реанимация скачать торрент в хорошем качестве
    Реанимация смотреть онлайн бесплатно в хорошем качестве


    Вы не можете начинать темы
    Вы не можете отвечать на сообщения
    Вы не можете редактировать свои сообщения
    Вы не можете удалять свои сообщения
    Вы не можете голосовать в опросах
    Вы не можете прикреплять файлы к сообщениям
    Вы можете скачивать файлы