Ссылка на приватное зеркало нашего сайта всего за 1$. Внимание количество ограничено!!!

2 сезон

iTunes

1 сезон

1

iTunes

iTunes

iTunes

1 сезон

RePack

30

ИГРА 18+

pack

ВАЖНО

!!Акция!!

Alien_RageХит недели

RePack

MK11
pack

Забери бонус

RePack

jed

!!Акция!!

Alien_Rage

RePack

fifa19

RePack

Assassins Creed: Odyssey

RePack

NEED FOR SPEED™ PAYBACK

4 сезон

9 сезон

Бесстыжие 9 сезон

Все сериалы

все сериалы на PB.wtf

RePack

FAR CRY 5
  

Украденная свадьба / Серии: 1-4 из 4 (Игорь Штернберг) [2015, Мелодрама, детектив, SATRip] pb.wtf

Украденная свадьба через торрент pb.wtf

Размер: 1.94 GB | Добавлен: 4 года 11 мес. назад | Торрент скачан:198 раз
Скачать  

01-11-2015 14:20 Украденная свадьба Скачать торрент  

Украденная свадьба

Год выпуска: 2015
Производство: Россия, Компания "Твин", Киногруппа «2ПЛАН2»
Жанр: Мелодрама, детектив
Продолжительность: 00:43:00
Субтитры: нет

Режиссёр: Игорь Штернберг

В ролях: Сергей Горобченко, Анна Попова, Игорь Штернберг, Сергей Генкин, Юрий Ваксман, Елена Ручкина, Игорь Фурманюк, Тимур Бадалбейли.

Описание: Бывший следователь, а ныне популярный писатель Ярослав Толоконников презентует новую книгу. Много лет назад он охотился за криминальным авторитетом Хароном и вынудил его бежать из страны. В своей книге Ярослав даёт волю фантазии и восстанавливает справедливость, сажая Харона за решётку. На презентации он знакомится с Ингой, между ними вспыхивают чувства. И вот уже дело идёт к свадьбе. Но во время церемонии Инга получает букет от некого Одиссея и сбегает. Ярослав подключает свои старые связи, чтобы найти сбежавшую невесту. У неё дома обнаруживают пятна крови и пистолет. Распутывая следы, писатель выходит на областного депутата Климова и узнаёт о прошлом своей невесты: оказывается, двое её женихов были застрелены прямо на свадьбе.



Качество: SATRip
Формат: AVI
Видео кодек: XviD
Аудио кодек: AC3
Видео: 720x400 (1.80:1), 25 fps, XviD build 73 ~1392 kbps avg, 0.19 bit/pixel
Аудио: AC3 48000Hz, stereo,2 ch, 192kbps
Общее
Полное имя : F:\Украденная свадьба\01 серия.avi
Формат : AVI
Формат/Информация : Audio Video Interleave
Размер файла : 491 Мбайт
Продолжительность : 43 м.
Общий поток : 1594 Кбит/сек
Программа кодирования : VirtualDubMod 1.5.10.3 | www.virtualdub-fr.org || (build 2550/release)
Библиотека кодирования : VirtualDubMod build 2550/release

Видео
Идентификатор : 0
Формат : MPEG-4 Visual
Профиль формата : Advanced Simple@L5
Параметр BVOP формата : 1
Параметр QPel формата : Нет
Параметр GMC формата : Без точки перехода
Параметр матрицы формата : Выборочная
Идентификатор кодека : XVID
Идентификатор кодека/Подсказка : XviD
Продолжительность : 43 м.
Битрейт : 1393 Кбит/сек
Ширина : 720 пикселей
Высота : 400 пикселей
Соотношение сторон : 16:9
Частота кадров : 25,000 кадров/сек
Цветовое пространство : YUV
Субдискретизация насыщенности : 4:2:0
Битовая глубина : 8 бит
Тип развёртки : Прогрессивная
Метод сжатия : С потерями
Бит/(Пиксели*Кадры) : 0.193
Размер потока : 429 Мбайт (87%)
Библиотека кодирования : XviD 73

Аудио
Идентификатор : 1
Формат : AC-3
Формат/Информация : Audio Coding 3
Расширение режима : CM (complete main)
Параметр Endianness формата : Big
Идентификатор кодека : 2000
Продолжительность : 43 м.
Вид битрейта : Постоянный
Битрейт : 192 Кбит/сек
Каналы : 2 канала
Расположение каналов : Front: L R
Частота : 48,0 КГц
Метод сжатия : С потерями
Размер потока : 59,1 Мбайт (12%)
Выравнивание : Разделение по промежуткам
Продолжительность промежутка : 40 мс. (1,00 видеокадр)
Время предзагрузки промежутка : 500 мс.
Внимание! Раздача ведётся путём добавления новых серий; при каждом добавлении создаётся новый торрент.
Чтобы начать докачку новой серии, пользователям необходимо сделать следующее:
1. Остановить скачивание;
2. Удалить старый торрент у себя из клиента (старые серии удалять не надо);
3. Скачать новый торрент и запустить его у себя в клиенте вместо старого, при этом указать клиенту путь в старую папку куда и должно происходить скачивание новых серий. Ваш клиент при этом должен произвести хеширование (проверку) старой папки и будет докачивать только те серии, которых у вас ещё нет. Старые серии при этом не удаляются, а продолжают раздаваться! Eсли вы уже удалили старые серии, то предотвратить повторную закачку старых серий можно, отжав галочку в соответствующих местах при запуске нового торрента.
Рекламы нет.Добавлена 3-4 серия.pb.wtf



Скачать Украденная свадьба через торрент http://i1.imageban.ru/out/2015/11/01/98224d9a6b349ad2ee26010d600576ea.jpg Скачать фильм Украденная свадьба через торрент бесплантно в хорошем качестве Описание: Бывший следователь, а ныне популярный писатель Ярослав Толоконников презентует новую книгу. Много лет назад он охотился за ... 8 10 8
Торрент: Зарегистрирован [2015-11-01 18:59] · скачан: 198 раз
Статус: √ проверено
Размер: 1.94 GB
Как cкачать? Как скачать Украденная свадьба через торрент | qTorrent

28-11-2019 20:33  

Отключить всю рекламу на сайте

    Дорогой пользователь! Огромная просьба, поблагодарите релизера, оцените раздачу и оставьте свои комментарий, если Вы скачали Украденная свадьба через торрент бесплатно! Внесите свою лепту в развитие PiratBit!
    Комментировать посты могут только пользователи прошедшие не сложную регистрацию
    Показать сообщения:    

    Украденная свадьба через торрент
    Скачать бесплатно Украденная свадьба
    Украденная свадьба скачать торрент
    Украденная свадьба смотреть онлайн
    Cкачать фильм Украденная свадьба бесплатно
    Украденная свадьба скачать торрент в хорошем качестве
    Украденная свадьба смотреть онлайн бесплатно в хорошем качестве


    Вы не можете начинать темы
    Вы не можете отвечать на сообщения
    Вы не можете редактировать свои сообщения
    Вы не можете удалять свои сообщения
    Вы не можете голосовать в опросах
    Вы не можете прикреплять файлы к сообщениям
    Вы можете скачивать файлы