Ссылка на приватное зеркало нашего сайта всего за 1$. Внимание количество ограничено!!!

2 сезон

iTunes

1 сезон

1

iTunes

iTunes

iTunes

1 сезон

RePack

30

ИГРА 18+

pack

ВАЖНО

!!Акция!!

Alien_RageХит недели

RePack

MK11
pack

Забери бонус

RePack

jed

!!Акция!!

Alien_Rage

RePack

fifa19

RePack

Assassins Creed: Odyssey

RePack

NEED FOR SPEED™ PAYBACK

4 сезон

9 сезон

Бесстыжие 9 сезон

Все сериалы

все сериалы на PB.wtf

RePack

FAR CRY 5
  

Поля смерти / The Killing Fields (Роланд Жоффе) [1984, драма, военный, BDRip 720p by msltel] 3 x DVO pb.wtf

Поля смерти через торрент pb.wtf

Размер: 7 GB | Добавлен: 4 года 11 мес. назад | Торрент скачан:20 раз
Скачать  

01-11-2015 14:32 Поля смерти Скачать торрент  

Название: Поля смерти
Оригинальное название: The Killing Fields
Год выпуска: 1984
Страна: Великобритания
Жанр: драма, военный
Продолжительность: 02:21:52
Перевод: профессиональный двухголосый

Режиссёр: Роланд Жоффе

В ролях: Сэм Уотерстон, Хэйнг С. Нгор, Джон Малкович, Джулиан Сэндс, Крэйг Т. Нельсон, Сполдинг Грей, Билл Патерсон, Атол Фугард, Грэм Кеннеди, Кэтерин Крапум Чей, Оливер Пьерпаоли, Эдвард Энтеро Чей, Том Берд, Монирак Сисоват, Ламбул Дтанпхайбул, Айра Уилер, Дэвид Хенри, Патрик Мэлахайд, Нелл Кэмпбелл, Джоан Харрис, Джоанна Мерлин, Джей Барни, Марк Лонг, Саё Инаба, Моу Ленг, Чинсауре Сар, Хоут Минг Трэн, Тач Суон, Ниви Пэл

Описание: Корреспондент «Нью-Йорк Таймс» Сидней Шенберг пишет репортажи о гражданской войне между красными кхмерами и правительством. Его незаменимый помощник и друг — добрый, умный и интеллигентный Дит Пран. Как переводчику и проводнику ему нет равных. Когда красные кхмеры побеждают, американцы эвакуируются из Камбоджи. Дит Пран отправляет с ними семью, но сам остаётся с Сиднеем, чтобы помочь ему написать о перевороте. Иностранному журналисту Шенбергу удастся выбраться из страны, но положение Прана совсем иное: он местный и совершенно беззащитен перед революционным террором красных кхмеров...



Качество: BDRip 720p Сравнение с исходником
Формат: MKV
Видео: MPEG-4 AVC, 5519 Кбит/с, 1280x690, 23,976 кадра/с
Аудио 1: русский, AC3, 384 kbps, 6 ch, 48 kHz [профессиональный двухголосый, Cinema Prestige]
Аудио 2: русский, AC3, 384 kbps, 6 ch, 48 kHz [профессиональный двухголосый, Total DVD]
Аудио 3: русский, AC3, 192 kbps, 2 ch, 48 kHz [профессиональный двухголосый, Екатеринбург Арт]
Аудио 4: английский, AC3, 448 kbps, 6 ch, 48 kHz [оригинал]
Субтитры 1: русские
Субтитры 2: английские
Общее
Уникальный идентификатор : 204076621977700229884931408279164321667 (0x9987BA4BF6E2BF0AADCD086E32E27F83)
Полное имя : D:VideoПоля смерти.1984.BDRip.720p.mkv
Формат : Matroska
Версия формата : Version 4 / Version 2
Размер файла : 7,00 Гбайт
Продолжительность : 2 ч. 21 м.
Общий поток : 7067 Кбит/сек
Название фильма : BDRip -- STarankov
Дата кодирования : UTC 2015-11-01 08:32:04
Программа кодирования : mkvmerge v8.2.0 ('World of Adventure') 64bit
Библиотека кодирования : libebml v1.3.1 + libmatroska v1.4.2
DURATION : 02:15:19.719000000
NUMBER_OF_FRAMES : 855
NUMBER_OF_BYTES : 32308
_STATISTICS_WRITING_APP : mkvmerge v8.2.0 ('World of Adventure') 64bit
_STATISTICS_WRITING_DATE_UTC : 2015-11-01 08:32:04
_STATISTICS_TAGS : BPS DURATION NUMBER_OF_FRAMES NUMBER_OF_BYTES

Видео
Идентификатор : 1
Формат : AVC
Формат/Информация : Advanced Video Codec
Профиль формата : High@L4.1
Параметр CABAC формата : Да
Параметр ReFrames формата : 9 кадров
Идентификатор кодека : V_MPEG4/ISO/AVC
Продолжительность : 2 ч. 21 м.
Битрейт : 5519 Кбит/сек
Ширина : 1280 пикселей
Высота : 690 пикселей
Соотношение сторон : 1,85:1
Режим частоты кадров : Постоянный
Частота кадров : 23,976 кадра/сек
Цветовое пространство : YUV
Субдискретизация насыщенности : 4:2:0
Битовая глубина : 8 бит
Тип развёртки : Прогрессивная
Бит/(Пиксели*Кадры) : 0.261
Размер потока : 5,47 Гбайт (78%)
Библиотека кодирования : x264 core 146 r2538 121396c
Настройки программы : cabac=1 / ref=9 / deblock=1:-3:-3 / analyse=0x3:0x113 / me=umh / subme=10 / psy=1 / psy_rd=1.00:0.15 / mixed_ref=1 / me_range=32 / chroma_me=1 / trellis=2 / 8x8dct=1 / cqm=0 / deadzone=21,11 / fast_pskip=1 / chroma_qp_offset=-3 / threads=6 / lookahead_threads=1 / sliced_threads=0 / nr=0 / decimate=1 / interlaced=0 / bluray_compat=0 / constrained_intra=0 / bframes=12 / b_pyramid=2 / b_adapt=2 / b_bias=0 / direct=1 / weightb=1 / open_gop=0 / weightp=2 / keyint=230 / keyint_min=23 / scenecut=40 / intra_refresh=0 / rc_lookahead=40 / rc=crf / mbtree=0 / crf=20.2 / qcomp=0.60 / qpmin=0 / qpmax=69 / qpstep=4 / vbv_maxrate=40000 / vbv_bufsize=50000 / crf_max=0.0 / nal_hrd=none / filler=0 / ip_ratio=1.40 / pb_ratio=1.30 / aq=1:1.00
Язык : English
Default : Да
Forced : Нет
DURATION : 02:21:52.421000000
NUMBER_OF_FRAMES : 204094
NUMBER_OF_BYTES : 6019764021
_STATISTICS_WRITING_APP : mkvmerge v8.2.0 ('World of Adventure') 64bit
_STATISTICS_WRITING_DATE_UTC : 2015-11-01 08:32:04
_STATISTICS_TAGS : BPS DURATION NUMBER_OF_FRAMES NUMBER_OF_BYTES

Аудио #1
Идентификатор : 2
Формат : AC-3
Формат/Информация : Audio Coding 3
Расширение режима : CM (complete main)
Параметр Endianness формата : Big
Идентификатор кодека : A_AC3
Продолжительность : 2 ч. 21 м.
Вид битрейта : Постоянный
Битрейт : 384 Кбит/сек
Каналы : 6 каналов
Расположение каналов : Front: L C R, Side: L R, LFE
Частота : 48,0 КГц
Метод сжатия : С потерями
Размер потока : 390 Мбайт (5%)
Заголовок : DVO (Cinema Prestige)
Язык : Russian
Default : Да
Forced : Нет

Аудио #2
Идентификатор : 3
Формат : AC-3
Формат/Информация : Audio Coding 3
Расширение режима : CM (complete main)
Параметр Endianness формата : Big
Идентификатор кодека : A_AC3
Продолжительность : 2 ч. 21 м.
Вид битрейта : Постоянный
Битрейт : 384 Кбит/сек
Каналы : 6 каналов
Расположение каналов : Front: L C R, Side: L R, LFE
Частота : 48,0 КГц
Метод сжатия : С потерями
Размер потока : 390 Мбайт (5%)
Заголовок : DVO (Total DVD)
Язык : Russian
Default : Нет
Forced : Нет

Аудио #3
Идентификатор : 4
Формат : AC-3
Формат/Информация : Audio Coding 3
Расширение режима : CM (complete main)
Параметр Endianness формата : Big
Идентификатор кодека : A_AC3
Продолжительность : 2 ч. 21 м.
Вид битрейта : Постоянный
Битрейт : 192 Кбит/сек
Каналы : 2 канала
Расположение каналов : Front: L R
Частота : 48,0 КГц
Метод сжатия : С потерями
Размер потока : 195 Мбайт (3%)
Заголовок : DVO (Екатеринбург Арт)
Язык : Russian
Default : Нет
Forced : Нет

Аудио #4
Идентификатор : 5
Формат : AC-3
Формат/Информация : Audio Coding 3
Расширение режима : CM (complete main)
Параметр Endianness формата : Big
Идентификатор кодека : A_AC3
Продолжительность : 2 ч. 21 м.
Вид битрейта : Постоянный
Битрейт : 448 Кбит/сек
Каналы : 6 каналов
Расположение каналов : Front: L C R, Side: L R, LFE
Частота : 48,0 КГц
Метод сжатия : С потерями
Размер потока : 455 Мбайт (6%)
Заголовок : Original
Язык : English
Default : Нет
Forced : Нет

Текст #1
Идентификатор : 6
Формат : UTF-8
Идентификатор кодека : S_TEXT/UTF8
Идентификатор кодека/Информация : UTF-8 Plain Text
Заголовок : русский
Язык : Russian
Default : Нет
Forced : Нет

Текст #2
Идентификатор : 7
Формат : UTF-8
Идентификатор кодека : S_TEXT/UTF8
Идентификатор кодека/Информация : UTF-8 Plain Text
Заголовок : английский
Default : Нет
Forced : Нет
pb.wtf



Скачать Поля смерти через торрент http://i65.fastpic.ru/big/2015/1101/6a/fe8f75c3e981a0650c600de7bdabca6a.jpg Скачать фильм Поля смерти через торрент бесплантно в хорошем качестве Описание: Корреспондент «Нью-Йорк Таймс» Сидней Шенберг пишет репортажи о гражданской войне между красными кхмерами и правительством. Его ... 10 10 1
Торрент: Зарегистрирован [2015-11-01 14:32] · скачан: 20 раз
Статус: √ проверено
Размер: 7 GB
Как cкачать? Как скачать Поля смерти через торрент | qTorrent

% Раздел Тема Автор DL S | L
Фильмы до 2000 г. [ 4.28 GB ] Поля смерти / The Killing Fields [1984 военный BDRip AVC by msltel] 3 x DVO msltel Скачать
1 | 0

28-11-2019 20:33  

Отключить всю рекламу на сайте

    Дорогой пользователь! Огромная просьба, поблагодарите релизера, оцените раздачу и оставьте свои комментарий, если Вы скачали Поля смерти через торрент бесплатно! Внесите свою лепту в развитие PiratBit!
    Комментировать посты могут только пользователи прошедшие не сложную регистрацию
    Показать сообщения:    

    Поля смерти через торрент
    Скачать бесплатно Поля смерти
    Поля смерти скачать торрент
    Поля смерти смотреть онлайн
    Cкачать фильм Поля смерти бесплатно
    Поля смерти скачать торрент в хорошем качестве
    Поля смерти смотреть онлайн бесплатно в хорошем качестве


    Вы не можете начинать темы
    Вы не можете отвечать на сообщения
    Вы не можете редактировать свои сообщения
    Вы не можете удалять свои сообщения
    Вы не можете голосовать в опросах
    Вы не можете прикреплять файлы к сообщениям
    Вы можете скачивать файлы