2 сезон

iTunes

1 сезон

1

iTunes

iTunes

iTunes

1 сезон

RePack

30

ИГРА 18+

pack

ВАЖНО

!!Акция!!

Alien_RageХит недели

RePack

MK11
pack

Забери бонус

RePack

jed

!!Акция!!

Alien_Rage

RePack

fifa19

RePack

Assassins Creed: Odyssey

RePack

NEED FOR SPEED™ PAYBACK

4 сезон

9 сезон

Бесстыжие 9 сезон

Все сериалы

все сериалы на PB.wtf

RePack

FAR CRY 5
  

Это, блин, рождественское чудо / A Merry Friggin' Christmas (Тристрам Шапиро) [2014, комедия, драма, семейный, BDRip 1080p, Дубляж] / Чистый звук pb.wtf

Это, блин, рождественское чудо через торрент pb.wtf

Размер: 8.97 GB | Добавлен: 4 года 11 мес. назад | Торрент скачан:45 раз
Скачать  

01-11-2015 15:27 Это, блин, рождественское чудо Скачать торрент  


Это, блин, рождественское чудо / A Merry Friggin' Christmas
««Spend it with the ones you loathe»»

ИНФОРМАЦИЯ:
Год выпуска:2014
Страна: США
Жанр: комедия, драма, семейный
Продолжительность: 01:21:45
Перевод: Дубляж - [Чистый звук]
Субтитры: русские, английские,
Режиссер: Тристрам Шапиро

В Ролях:


Джоэл МакХэйл (Boyd Mitchler), Робин Уильямс (Virgil Mitchler), Лорен Грэм (Luann Mitchler), Кларк Дьюк (Nelson Mitchler), Оливер Платт (Hobo Santa), Венди МакЛендон-Кови (Shauna Welnke), Тим Хайдекер (Dave Welnke), Кэндис Берген (Donna Mitchler), Пирс Гэнон (Douglas Mitchler), Бебе Вуд (Vera Mitchler), Райан Ли (Rance Welnke), Амара Миллер (Pam Welnke)

Описание:
Бойд Митчлер и его жена Луанн решают провести Рождество с отцом Бойда Митчем и его, мягко выражаясь, странноватым семейством. Сообразив, что он забыл дома все подарки, Бойд в компании брата и отца прыгает в машину и пытается совершить невозможное: съездить домой и вернуться обратно до рассвета.

  • Мировая премьера:17 октября 2014

    ТЕХ.ДАННЫЕ:
    Качество: BDRip 1080p
    Формат: MKV
    Видео: AVC, 1920x1080 (16:9), 14000 kbps, 23,976 fps, 0,282 bpp
    Аудио №1: русский / AC3 / 2.0 / 48 kHz / 192 kbps / 16 bit ||
    Аудио №2: английский / DTS / 5.1 / 48 kHz / 1510 kbps / 24 bit
    Навигация по главам: есть


    General
    Unique ID : 225738647897417394853679591472820505090 (0xA9D3AEA1FAC5F41699664B65554DCA02)
    Complete name : D:\Торенты\Chude7nenk0e.R0jde7tv0.2014.D.BDRip.1080p.mkv
    Format : Matroska
    Format version : Version 4 / Version 2
    File size : 8.97 GiB
    Duration : 1h 21mn
    Overall bit rate : 15.7 Mbps
    Movie name : Release Group CINEMANIA
    Encoded date : UTC 2015-11-01 08:12:34
    Writing application : mkvmerge v8.5.0 ('Vanishing Act') 64bit
    Writing library : libebml v1.3.1 + libmatroska v1.4.2

    Video
    ID : 1
    Format : AVC
    Format/Info : Advanced Video Codec
    Format profile : Main@L4.1
    Format settings, CABAC : Yes
    Format settings, ReFrames : 11 frames
    Codec ID : V_MPEG4/ISO/AVC
    Duration : 1h 21mn
    Bit rate : 14.0 Mbps
    Width : 1 920 pixels
    Height : 1 080 pixels
    Display aspect ratio : 16:9
    Frame rate mode : Variable
    Frame rate : 23.976 fps
    Color space : YUV
    Chroma subsampling : 4:2:0
    Bit depth : 8 bits
    Scan type : Progressive
    Bits/(Pixel*Frame) : 0.282
    Stream size : 7.81 GiB (87%)
    Title : Release Group CINEMANIA
    Writing library : x264 core 142 r2389 956c8d8
    Encoding settings : cabac=1 / ref=12 / deblock=1:-3:-3 / analyse=0x1:0x111 / me=umh / subme=10 / psy=1 / psy_rd=1.00:0.00 / mixed_ref=1 / me_range=48 / chroma_me=1 / trellis=2 / 8x8dct=0 / cqm=0 / deadzone=21,11 / fast_pskip=1 / chroma_qp_offset=-2 / threads=6 / lookahead_threads=1 / sliced_threads=0 / nr=0 / decimate=1 / interlaced=0 / bluray_compat=0 / constrained_intra=0 / bframes=9 / b_pyramid=1 / b_adapt=2 / b_bias=0 / direct=2 / weightb=1 / open_gop=0 / weightp=2 / keyint=240 / keyint_min=24 / scenecut=40 / intra_refresh=0 / rc_lookahead=40 / rc=2pass / mbtree=1 / bitrate=14000 / ratetol=1.0 / qcomp=0.60 / qpmin=0 / qpmax=69 / qpstep=4 / cplxblur=20.0 / qblur=0.5 / vbv_maxrate=62500 / vbv_bufsize=78125 / nal_hrd=none / filler=0 / ip_ratio=1.40 / aq=1:1.00
    Default : Yes
    Forced : No
    Color primaries : BT.709-5, BT.1361, IEC 61966-2-4, SMPTE RP177
    Transfer characteristics : BT.709-5, BT.1361
    Matrix coefficients : BT.709-5, BT.1361, IEC 61966-2-4 709, SMPTE RP177

    Audio #1
    ID : 2
    Format : AC-3
    Format/Info : Audio Coding 3
    Mode extension : CM (complete main)
    Codec ID : A_AC3
    Duration : 1h 21mn
    Bit rate mode : Constant
    Bit rate : 192 Kbps
    Channel(s) : 2 channels
    Channel positions : Front: L R
    Sampling rate : 48.0 KHz
    Bit depth : 16 bits
    Compression mode : Lossy
    Delay relative to video : -81ms
    Stream size : 112 MiB (1%)
    Language : Russian
    Default : Yes
    Forced : No

    Audio #2
    ID : 3
    Format : DTS
    Format/Info : Digital Theater Systems
    Codec ID : A_DTS
    Duration : 1h 21mn
    Bit rate mode : Constant
    Bit rate : 1 510 Kbps
    Channel(s) : 6 channels
    Channel positions : Front: L C R, Side: L R, LFE
    Sampling rate : 48.0 KHz
    Bit depth : 24 bits
    Compression mode : Lossy
    Delay relative to video : -81ms
    Stream size : 883 MiB (10%)
    Language : English
    Default : No
    Forced : No

    Text #1
    ID : 4
    Format : UTF-8
    Codec ID : S_TEXT/UTF8
    Codec ID/Info : UTF-8 Plain Text
    Language : Russian
    Default : Yes
    Forced : Yes

    Text #2
    ID : 5
    Format : UTF-8
    Codec ID : S_TEXT/UTF8
    Codec ID/Info : UTF-8 Plain Text
    Language : English
    Default : No
    Forced : No

    Menu
    00:00:00.000 : :Chapter 1
    00:04:14.250 : :Chapter 2
    00:08:17.243 : :Chapter 3
    00:12:52.893 : :Chapter 4
    00:17:54.528 : :Chapter 5
    00:22:45.944 : :Chapter 6
    00:26:23.244 : :Chapter 7
    00:33:51.442 : :Chapter 8
    00:38:53.661 : :Chapter 9
    00:43:16.006 : :Chapter 10
    00:48:37.285 : :Chapter 11
    00:52:31.436 : :Chapter 12
    00:57:54.008 : :Chapter 13
    01:03:03.818 : :Chapter 14
    01:08:06.787 : :Chapter 15
    01:13:34.698 : :Chapter 16
    Скриншоты:


    © Оформление by Ворон
    pb.wtf



  • Скачать Это, блин, рождественское чудо через торрент http://pic.kartinco.top/images/6/ordi9.jpg Скачать фильм Это, блин, рождественское чудо через торрент бесплантно в хорошем качестве Описание: Бойд Митчлер и его жена Луанн решают провести Рождество с отцом Бойда Митчем и его, мягко выражаясь, странноватым семейством. ... 8.2 10 5
    Торрент: Зарегистрирован [2015-11-01 15:27] · скачан: 45 раз
    Статус: T временная
    Размер: 8.97 GB
    Как cкачать? Как скачать Это, блин, рождественское чудо через торрент | qTorrent

    28-11-2019 20:33  

    Отключить всю рекламу на сайте

      Дорогой пользователь! Огромная просьба, поблагодарите релизера, оцените раздачу и оставьте свои комментарий, если Вы скачали Это, блин, рождественское чудо через торрент бесплатно! Внесите свою лепту в развитие PiratBit!
      Комментировать посты могут только пользователи прошедшие не сложную регистрацию
      Показать сообщения:    

      Это, блин, рождественское чудо через торрент
      Скачать бесплатно Это, блин, рождественское чудо
      Это, блин, рождественское чудо скачать торрент
      Это, блин, рождественское чудо смотреть онлайн
      Cкачать фильм Это, блин, рождественское чудо бесплатно
      Это, блин, рождественское чудо скачать торрент в хорошем качестве
      Это, блин, рождественское чудо смотреть онлайн бесплатно в хорошем качестве


      Вы не можете начинать темы
      Вы не можете отвечать на сообщения
      Вы не можете редактировать свои сообщения
      Вы не можете удалять свои сообщения
      Вы не можете голосовать в опросах
      Вы не можете прикреплять файлы к сообщениям
      Вы можете скачивать файлы