Ссылка на приватное зеркало всего за 1$. Внимание количество ограничено!!!

iTunes

iTunes

iTunes

1

iTunes

iTunes

iTunes

iTunes

iTunes

30
pack

Новость дня

ВАЖНО

!!Акция!!

Alien_RageХит недели

RePack

Resident Evil 21

ИГРА 18+

pack

RePack

jed

!!Акция!!

Alien_Rage

RePack

fifa19

RePack

Assassins Creed: Odyssey

RePack

NEED FOR SPEED™ PAYBACK

4 сезон

9 сезон

Бесстыжие 9 сезон

Все сериалы

все сериалы на PB.wtf

RePack

FAR CRY 5
  

Последний вагон. Весна (Антон Калинкин) [2015, триллер, WEB-DLRip, [Русский / iTunes] pb.wtf

Последний вагон. Весна через торрент pb.wtf

Размер: 1.45 GB | Добавлен: 4 года 6 мес. назад | Торрент скачан:912 раз
Скачать  

01-11-2015 17:17 Последний вагон. Весна Скачать торрент  


Последний вагон. Весна


ИНФОРМАЦИЯ:
Год выпуска:2015
Страна: Россия
Жанр: триллер
Продолжительность: 01:45:35
Перевод: Не требуется [Русский]
Режиссер: Антон Калинкин

В Ролях:


Илья Любимов, Мария Андреева, Анна Чурина, Борис Хвошнянский, Тимофей Трибунцев, Петар Зекавица, Сергей Греков, Алексей Ингелевич, Сергей Комаров, Екатерина Маликова, Иван Шмаков

Описание:
Главный герой Виктор - молодой тренер по боксу, у которого все великолепно: хорошая работа, красивая девушка рядом, веселые друзья. Однако жизнь приготовила ему серьезные испытания - в одну секунду все меняется и он становится главным подозреваемым в трех убийствах. Но судьба дает ему шанс...


ТЕХ.ДАННЫЕ:
Качество: WEB-DLRip
Формат: AVI
Видео: XviD, 720x304 (2.35:1), 1501 kbps, 24 fps, 0,286 bpp
Аудио: AC3 / 5.1 / 48 kHz / 384 kbps / 16 bit


General
Complete name : D:\Торенты\PoClednyj.Vag0H.BeCH4.2015.O.WEB-DLRip.1.45GB.avi
Format : AVI
Format/Info : Audio Video Interleave
File size : 1.45 GiB
Duration : 1h 45mn
Overall bit rate : 1 972 Kbps
Writing application : VirtualDubMod 1.5.10.2 (build 2540/release)
Writing library : VirtualDubMod build 2540/release

Video
ID : 0
Format : MPEG-4 Visual
Format profile : Advanced Simple@L5
Format settings, BVOP : 2
Format settings, QPel : No
Format settings, GMC : No warppoints
Format settings, Matrix : Default (MPEG)
Codec ID : XVID
Codec ID/Hint : XviD
Duration : 1h 45mn
Bit rate : 1 501 Kbps
Width : 720 pixels
Height : 304 pixels
Display aspect ratio : 2.35:1
Frame rate : 24.000 fps
Color space : YUV
Chroma subsampling : 4:2:0
Bit depth : 8 bits
Scan type : Progressive
Compression mode : Lossy
Bits/(Pixel*Frame) : 0.286
Stream size : 1.11 GiB (76%)
Writing library : XviD 1.2.1 (UTC 2008-12-04)

Audio
ID : 1
Format : AC-3
Format/Info : Audio Coding 3
Mode extension : CM (complete main)
Codec ID : 2000
Duration : 1h 45mn
Bit rate mode : Constant
Bit rate : 384 Kbps
Channel(s) : 6 channels
Channel positions : Front: L C R, Side: L R, LFE
Sampling rate : 48.0 KHz
Bit depth : 16 bits
Compression mode : Lossy
Stream size : 290 MiB (19%)
Alignment : Split accross interleaves
Скриншоты:


© Оформление by Ворон
pb.wtf



Скачать Последний вагон. Весна через торрент http://pic.kartinco.top/images/6/ordi9.jpg Скачать фильм Последний вагон. Весна через торрент бесплантно в хорошем качестве Описание: Главный герой Виктор - молодой тренер по боксу, у которого все великолепно: хорошая работа, красивая девушка рядом, веселые ... 9 10 29
Торрент: Зарегистрирован [2015-11-01 17:17] · скачан: 912 раз
Статус: √ проверено
Размер: 1.45 GB
Как cкачать? Как скачать Последний вагон. Весна через торрент | qTorrent

% Раздел Тема Автор DL S | L
Наши фильмы (HD, WEB-DL 720p, 1080p) [ 3.61 GB ] Последний вагон. Весна [2015 WEB-DL 1080p [Русский] Ворон Скачать
1 | 0

28-11-2019 20:33  

Отключить всю рекламу на сайте

01-11-2015 21:47 Последний вагон. Весна Скачать торрент  

pb.wtf



    Дорогой пользователь! Огромная просьба, поблагодарите релизера, оцените раздачу и оставьте свои комментарий, если Вы скачали Последний вагон. Весна через торрент бесплатно! Внесите свою лепту в развитие PiratBit!
    Комментировать посты могут только пользователи прошедшие не сложную регистрацию
    Показать сообщения:    

    Последний вагон. Весна через торрент
    Скачать бесплатно Последний вагон. Весна
    Последний вагон. Весна скачать торрент
    Последний вагон. Весна смотреть онлайн
    Cкачать фильм Последний вагон. Весна бесплатно
    Последний вагон. Весна скачать торрент в хорошем качестве
    Последний вагон. Весна смотреть онлайн бесплатно в хорошем качестве


    Вы не можете начинать темы
    Вы не можете отвечать на сообщения
    Вы не можете редактировать свои сообщения
    Вы не можете удалять свои сообщения
    Вы не можете голосовать в опросах
    Вы не можете прикреплять файлы к сообщениям
    Вы можете скачивать файлы