2 сезон

iTunes

MVO

1

2 сезон

iTunes

iTunes

1 сезон

RePack

30

Новинка

ВАЖНО

ИГРА 18+

pack

RePack

MK11
pack

Легкие деньги

RePack

jed

RePack

fifa19

RePack

RDR2

RePack

NEED FOR SPEED™ PAYBACK

4 сезон

9 сезон

Бесстыжие 9 сезон

Все сериалы

все сериалы на PB.wtf

RePack

FAR CRY 5

Anonymous, добрый вечер, мы не успеваем собрать деньги на оплату серверов за декабрь и январь, помогите нам пожалуйста в это трудное время. В качестве благодарности мы отключим Вам всю рекламу на сайте (укажите свой ник в строку Ваше имя)!

×
  
Magnet ссылка

BBC. Холодная война: подводное противостояние / BBC. The Silent War (Дэвид Бэлтон) [2013 г., Документальный, война, флот, история, HDTVRip, Профессиональный (одноголосый)] pb.wtf

BBC. Холодная война: подводное противостояние через торрент pb.wtf

Размер: 1.46 GB | Добавлен: 5 лет 2 мес. назад | Торрент скачан:47 раз
Скачать  

01-11-2015 19:07 BBC. Холодная война: подводное противостояние Скачать торрент  

BBC. Холодная война: подводное противостояние / BBC. The Silent War




Год выпуска: 2013
Страна: Великобритания
Жанр: Документальный, война, флот, история
Продолжительность: 2 х ~00:58:00
Перевод: Профессиональный (одноголосый)
Субтитры: отсутствуют

Режиссер: Дэвид Бэлтон




Описание: Во второй половине 20-го века самые могущественные страны мира находились в напряженной борьбе за политическое и территориальное превосходство. США и Советский Союз постоянно разрабатывали новое ядерное оружие, которое могло бы уничтожить всю планету, но вся эта война зачастую велась лишь под водой в абсолютном секрете. Несмотря на то, что две супердержавы дали обещание сократить количество ядерного оружия, их субмарины продолжали шпионить друг за другом, загонять в ловушки и готовиться к схватке, в результате которой могла погибнуть вся цивилизация. Это была секретная война за тактическое превосходство.




Качество: HDTVRip
Формат: AVI
Видео кодек: DivX
Аудио кодек: AC3
Видео: DivX 5,25 fps,720х400,16:9,1597 Кбит/сек
Аудио#1: AC-3,192 Кбит/сек, 2 канала,48,0 КГц
скриншот   скриншот   скриншот  

Общее
Полное имя : D:\download\BBC. Холодная война.Подводное противостояние. Узнай своего врага
Формат : AVI
Формат/Информация : Audio Video Interleave
Размер файла : 755 Мбайт
Продолжительность : 58 м.
Общий поток : 1799 Кбит/сек
Библиотека кодирования : Boilsoft Joiner build 2411/release

Видео
Идентификатор : 0
Формат : MPEG-4 Visual
Профиль формата : Advanced Simple@L5
Параметр BVOP формата : 2
Параметр QPel формата : Нет
Параметр GMC формата : Без точки перехода
Параметр матрицы формата : Default (MPEG)
Идентификатор кодека : DX50
Идентификатор кодека/Подсказка : DivX 5
Продолжительность : 58 м.
Битрейт : 1597 Кбит/сек
Ширина : 720 пикселей
Высота : 400 пикселей
Соотношение сторон : 16:9
Частота кадров : 25,000 кадров/сек
Цветовое пространство : YUV
Субдискретизация насыщенности : 4:2:0
Битовая глубина : 8 бит
Тип развёртки : Прогрессивная
Метод сжатия : С потерями
Бит/(Пиксели*Кадры) : 0.222
Размер потока : 670 Мбайт (89%)
Библиотека кодирования : XviD 73

Аудио
Идентификатор : 1
Формат : AC-3
Формат/Информация : Audio Coding 3
Расширение режима : CM (complete main)
Параметр Endianness формата : Big
Идентификатор кодека : 2000
Продолжительность : 58 м.
Вид битрейта : Постоянный
Битрейт : 192 Кбит/сек
Каналы : 2 канала
Расположение каналов : Front: L R
Частота : 48,0 КГц
Битовая глубина : 16 бит
Метод сжатия : С потерями
Размер потока : 80,6 Мбайт (11%)
Выравнивание : Разделение по промежуткам
Продолжительность промежутка : 40 мс. (1,00 видеокадр)
Время предзагрузки промежутка : 500 мс.

Общее
Полное имя : D:\download\BBC. Холодная война. Подводное противостояние.Русское наступление
Формат : AVI
Формат/Информация : Audio Video Interleave
Размер файла : 745 Мбайт
Продолжительность : 57 м.
Общий поток : 1799 Кбит/сек
Программа кодирования : VirtualDubMod 1.5.10.3 | www.virtualdub-fr.org || (build 2550/release)
Библиотека кодирования : VirtualDubMod build 2550/release

Видео
Идентификатор : 0
Формат : MPEG-4 Visual
Профиль формата : Advanced Simple@L5
Параметр BVOP формата : 2
Параметр QPel формата : Нет
Параметр GMC формата : Без точки перехода
Параметр матрицы формата : Default (MPEG)
Идентификатор кодека : DX50
Идентификатор кодека/Подсказка : DivX 5
Продолжительность : 57 м.
Битрейт : 1597 Кбит/сек
Ширина : 720 пикселей
Высота : 400 пикселей
Соотношение сторон : 16:9
Частота кадров : 25,000 кадров/сек
Цветовое пространство : YUV
Субдискретизация насыщенности : 4:2:0
Битовая глубина : 8 бит
Тип развёртки : Прогрессивная
Метод сжатия : С потерями
Бит/(Пиксели*Кадры) : 0.222
Размер потока : 662 Мбайт (89%)
Библиотека кодирования : XviD 73

Аудио
Идентификатор : 1
Формат : AC-3
Формат/Информация : Audio Coding 3
Расширение режима : CM (complete main)
Параметр Endianness формата : Big
Идентификатор кодека : 2000
Продолжительность : 57 м.
Вид битрейта : Постоянный
Битрейт : 192 Кбит/сек
Каналы : 2 канала
Расположение каналов : Front: L R
Частота : 48,0 КГц
Битовая глубина : 16 бит
Метод сжатия : С потерями
Размер потока : 79,4 Мбайт (11%)
Выравнивание : Разделение по промежуткам
Продолжительность промежутка : 40 мс. (1,00 видеокадр)
Время предзагрузки промежутка : 500 мс.

Фильм 1. Узнай своего врага
Фильм 2. Русское наступление
pb.wtf



Скачать BBC. Холодная война: подводное противостояние через торрент https://pic.kartinco.top/images/11/ncv2x.jpg Скачать фильм BBC. Холодная война: подводное противостояние через торрент бесплантно в хорошем качестве Описание: Во второй половине 20-го века самые могущественные страны мира находились в напряженной борьбе за политическое и территориальное ... 9.5 10 2
Торрент: Зарегистрирован [2015-11-01 19:07] · скачан: 47 раз
Статус: √ проверено
Размер: 1.46 GB
Как cкачать? Как скачать BBC. Холодная война: подводное противостояние через торрент | UTorrent

28-11-2019 20:33  

Отключить всю рекламу на сайте

    Дорогой пользователь! Огромная просьба, поблагодарите релизера, оцените раздачу и оставьте свои комментарий, если Вы скачали BBC. Холодная война: подводное противостояние через торрент бесплатно! Внесите свою лепту в развитие PiratBit!
    Комментировать посты могут только пользователи прошедшие не сложную регистрацию
    Показать сообщения:    

    BBC. Холодная война: подводное противостояние через торрент
    Скачать бесплатно BBC. Холодная война: подводное противостояние
    BBC. Холодная война: подводное противостояние скачать торрент
    BBC. Холодная война: подводное противостояние смотреть онлайн
    Cкачать фильм BBC. Холодная война: подводное противостояние бесплатно
    BBC. Холодная война: подводное противостояние скачать торрент в хорошем качестве
    BBC. Холодная война: подводное противостояние смотреть онлайн бесплатно в хорошем качестве


    Вы не можете начинать темы
    Вы не можете отвечать на сообщения
    Вы не можете редактировать свои сообщения
    Вы не можете удалять свои сообщения
    Вы не можете голосовать в опросах
    Вы не можете прикреплять файлы к сообщениям
    Вы можете скачивать файлы