Ссылка на приватное зеркало всего за 1$. Внимание количество ограничено!!!

iTunes

iTunes

iTunes

1

iTunes

iTunes

iTunes

iTunes

iTunes

30
pack

Новость дня

ВАЖНО

!!Акция!!

Alien_RageХит недели

RePack

Resident Evil 21

ИГРА 18+

pack

RePack

jed

!!Акция!!

Alien_Rage

RePack

fifa19

RePack

Assassins Creed: Odyssey

RePack

NEED FOR SPEED™ PAYBACK

4 сезон

9 сезон

Бесстыжие 9 сезон

Все сериалы

все сериалы на PB.wtf

RePack

FAR CRY 5
  

Воин (Алексей Андрианов) [2015, Россия, драма, спорт, WEB-DLRip от AVP Studio] iTunes pb.wtf

Воин через торрент pb.wtf

Размер: 746 MB | Добавлен: 4 года 6 мес. назад | Торрент скачан:357 раз
Скачать  

01-11-2015 19:47 Воин Скачать торрент  

Воин
Страна: Россия
Производство: Art Pictures Studio

Жанр: драма, спорт
Год выпуска: 2015
Продолжительность: 01:27:06

Перевод: Не требуется (iTunes)
Cубтитры: нет
Оригинальная аудиодорожка: русский

Режиссер: Алексей Андрианов

В ролях:
Владимир Яглыч, Сергей Бондарчук (мл.), Светлана Ходченкова, Фёдор Бондарчук, Александр Балуев, Александр Новин, Мария Андреева, Алексей Комашко...
Полный список актёров

Описание:
Роман Родин уходит из морской пехоты и возвращается в родной Калининград. Здесь у него отец и старший брат Вячеслав, но как будто никого: они не семья и давно не общаются. Отец, когда-то талантливый тренер по боксу, мечтавший сделать из сыновей чемпионов, завязал и теперь живет рыбалкой, терзаясь сожалениями. А Слава с женой выбиваются из сил, чтобы заработать на лечение дочки… Шанс все исправить появляется, когда объявляют о международном турнире по смешанным единоборствам с огромным призовым фондом. Оба брата решают участвовать, и Роман обращается за помощью к отцу.
Когда брат пойдет на брата, а сын – на отца, столкнувшись лицом к лицу на ринге, смогут ли они победить призраков прошлого?

Источник: WEB-DL 1080p
Качество видео: WEB-DLRip
Формат видео: AVI

Видео: 720x304 (2,35:1), 25 fps, XviD ~ 996 kbps avg, 0.182 bit/pixel
Аудио: 48 kHz, Dolby Digital AC3 2.0, 192 kbps iTunes

Раздача от:
Общее
Полное имя : Voin.2015.WEB-DLRip_[New-team]_by_AVP_Studio.avi
Формат : AVI
Формат/Информация : Audio Video Interleave
Размер файла : 746 Мбайт
Продолжительность : 1 ч. 27 м.
Общий поток : 1198 Кбит/сек
Программа кодирования : VirtualDubMod 1.5.10.3 | www.virtualdub-fr.org || (build 2550/release)
Библиотека кодирования : VirtualDubMod build 2550/release

Видео
Идентификатор : 0
Формат : MPEG-4 Visual
Профиль формата : Advanced Simple@L5
Параметр BVOP формата : 1
Параметр QPel формата : Нет
Параметр GMC формата : Без точки перехода
Параметр матрицы формата : Выборочная
Идентификатор кодека : XVID
Идентификатор кодека/Подсказка : XviD
Продолжительность : 1 ч. 27 м.
Битрейт : 996 Кбит/сек
Ширина : 720 пикселей
Высота : 304 пикселя
Соотношение сторон : 2,35:1
Частота кадров : 25,000 кадров/сек
Цветовое пространство : YUV
Субдискретизация насыщенности : 4:2:0
Битовая глубина : 8 бит
Тип развёртки : Прогрессивная
Метод сжатия : С потерями
Бит/(Пиксели*Кадры) : 0.182
Размер потока : 620 Мбайт (83%)
Библиотека кодирования : XviD 73

Аудио
Идентификатор : 1
Формат : AC-3
Формат/Информация : Audio Coding 3
Расширение режима : CM (complete main)
Параметр Endianness формата : Big
Идентификатор кодека : 2000
Продолжительность : 1 ч. 27 м.
Вид битрейта : Постоянный
Битрейт : 192 Кбит/сек
Каналы : 2 канала
Расположение каналов : Front: L R
Частота : 48,0 КГц
Метод сжатия : С потерями
Размер потока : 120 Мбайт (16%)
Выравнивание : Разделение по промежуткам
Продолжительность промежутка : 40 мс. (1,00 видеокадр)
Время предзагрузки промежутка : 500 мс
pb.wtf



Скачать Воин через торрент http://i6.imageban.ru/out/2015/11/01/1121664a443e3f09d37bf8b6565bba58.png Скачать фильм Воин через торрент бесплантно в хорошем качестве Описание:Роман Родин уходит из морской пехоты и возвращается в родной Калининград. Здесь у него отец и старший брат Вячеслав, но как будто ... 7.5 10 11
Торрент: Зарегистрирован [2015-11-04 12:30] · скачан: 357 раз
Статус: √ проверено
Размер: 746 MB
Как cкачать? Как скачать Воин через торрент | qTorrent

% Раздел Тема Автор DL S | L
Фильмы 2019-2020 [DVDrip, WEB-DLRip, HDrip] (DUB, MVO) [ 1.46 GB ] Восточный ветер 4: Легенда о Воине / Ostwind: Aris Ankunft / Windstorm 4: Ari's Arrival [2019 BDRip] bober100 Скачать
2 | 0
Фильмы (Blu-ray, BD-Remux, HDDVD) [ 17.97 GB ] Восточный ветер 4: Легенда о Воине / Ostwind: Aris Ankunft / Windstorm 4: Ari's Arrival [2019 BD Remux 1080p] bober100 Скачать
1 | 0
Фильмы (WEB-DL 720p, 1080p) [ 7.14 GB ] Cнайпер: воин призрак / Sniper: Ghost Shooter [2016 военный WEB-DL 1080p] [AMZN Version] MVO bober100 Скачать
1 | 0
Фильмы (WEB-DL 720p, 1080p) [ 3.83 GB ] Cнайпер: воин призрак / Sniper: Ghost Shooter [2016 военный WEB-DL 1080p] -Lexx- Скачать
1 | 0
T Релизы по Парсеру [Игры, Сериалы и Фильмы и другое...] [ 1.46 GB ] Cнайпер: воин призрак / Sniper: Ghost Shooter WEB-DLRip / Ворон Скачать
1 | 0
Фильмы 2016 [DVDrip, WEB-DLRip, HDrip] (DUB, MVO) [ 746 MB ] Cнайпер: воин призрак / Sniper: Ghost Shooter [2016 военный WEB-DLRip] / / Sherif Скачать
1 | 0
Наши новые фильмы 2015 [ 1.37 GB ] Воин [2015 WEB-DLRip [Русский / ] Ворон Скачать
1 | 0


Последний раз редактировалось: AVP Studio (2015-11-04 12:30), всего редактировалось 3 раз(а)

28-11-2019 20:33  

Отключить всю рекламу на сайте

01-11-2015 23:21 Воин Скачать торрент  

Лажа.
Не смотрел и не буду по причине:

1.Сюжет - скопировали один в один Очень хороший, крутой американский фильм из Топ 250 IMDB "Воин" (Warrior) 2011г.

Зачем копировать хороший фильм , даже его название и снимать Дерьмо с рейтингом 2.0 IMDB и 1.46 из 10-ти в Кинопоиске... режиссер мудак... Это...это финал.pb.wtf



02-11-2015 10:19 Воин Скачать торрент  

В кино фильм смотреть не стал по той же причине. Фильм скопирован с американского Воина 2001 г. вплоть до сцены пения гимна. Но все же решил посмотреть.pb.wtf



08-11-2015 10:25 Воин Скачать торрент  

дааааааа, ребята не ожидал я такого , нас считают за полных идиотов , скопировали фильм с Харди в главной роли, причем эти ,,,,,удаки еще бабло с бюджета тянут на эти сьемки , опустилсь вообще ниже плинтуса , короче те кто снял эту копию - вы 3,14дарасыpb.wtf



    Дорогой пользователь! Огромная просьба, поблагодарите релизера, оцените раздачу и оставьте свои комментарий, если Вы скачали Воин через торрент бесплатно! Внесите свою лепту в развитие PiratBit!
    Комментировать посты могут только пользователи прошедшие не сложную регистрацию
    Показать сообщения:    

    Воин через торрент
    Скачать бесплатно Воин
    Воин скачать торрент
    Воин смотреть онлайн
    Cкачать фильм Воин бесплатно
    Воин скачать торрент в хорошем качестве
    Воин смотреть онлайн бесплатно в хорошем качестве


    Вы не можете начинать темы
    Вы не можете отвечать на сообщения
    Вы не можете редактировать свои сообщения
    Вы не можете удалять свои сообщения
    Вы не можете голосовать в опросах
    Вы не можете прикреплять файлы к сообщениям
    Вы можете скачивать файлы