Ссылка на приватное зеркало нашего сайта всего за 1$. Внимание количество ограничено!!!

2 сезон

iTunes

1 сезон

1

2 сезон

2 сезон

iTunes

1 сезон

RePack

30

Новинка

ВАЖНО

ИГРА 18+

pack

RePack

MK11
pack

Забери бонус

RePack

jed

!!Акция!!

Alien_Rage

RePack

fifa19

RePack

Assassins Creed: Odyssey

RePack

NEED FOR SPEED™ PAYBACK

4 сезон

9 сезон

Бесстыжие 9 сезон

Все сериалы

все сериалы на PB.wtf

RePack

FAR CRY 5
  

Джекилл и Хайд / Jekyll & Hyde / Сезон: 1 / Серии 1-10 из 10 (Стюарт Сваасанд / Stewart Svaasand, Колин Тиг / Colin Teague) [2015, Великобритания, боевик, драма, приключения, WEB-DLRip-AVC, MVO] [BaibaKo] pb.wtf

Джекилл и Хайд через торрент pb.wtf

Размер: 10.34 GB | Добавлен: 4 года 11 мес. назад | Торрент скачан:251 раз
Скачать  

02-11-2015 00:43 Джекилл и Хайд Скачать торрент  

Джекилл и Хайд / Jekyll & Hyde


  • Год выпуска: 2015
  • Страна: Великобритания
  • Жанр: боевик, драма, приключения
  • Продолжительность: 00:47:11
  • Перевод: Профессиональный многоголосый закадровый [BaibaKo]

  • Режиссер: Стюарт Сваасанд / Stewart Svaasand, Колин Тиг / Colin Teague
  • В ролях:

    Оливер Гилберт (Mister Wax), Том Рис Харрис (Sackler), Stephanie Hyam (Lily Clarke), Тони Вэй (Silas), Нил Бишоп (MIO Officer), Дебора Росан (Bella's girl), Молли Уайтхаус (Ops Girl), Дэвид Барк-Джонс (Henry Jekyll), Том Бейтман (Robert Jekyll), Руби Бенталл (Hils), Эйс Бхатти (Dr. Najaran), Энцо Чиленти (Captain Dance)


  • Действие мистического триллера разворачивается в Лондоне 1930-х годов, а в центре сюжета оказывается внук доктора Джекила - очаровательный интеллектуал Роберт Джекил. Воспитанный приемными родителями, Роберт живет в Индии и готовится получить диплом врача, не подозревая о своем "семейном проклятии", которое все это время сдерживал его приемный отец - доктор Наджаран. Но в итоге тайное все же становится явным, и Роберту приходится столкнуться со своим альтер эго - Хайдом, мощным, быстрым и неуязвимым псевдосупергероем, в которого Роберт превращается в моменты сильного стресса и опасности. На протяжении десяти часовых эпизодов Роберт и Хайд будут пытаться прийти к согласию и как-то ужиться друг с другом, ведь без этого они не смогут противостоять многочисленным сверхъестественным тварям - оборотням, вампирам и другим монстрам.
  • Рейтинг:



  • Качество: WEB-DLRip-AVC
  • Формат: :MPEG-4
  • Видео кодек: AVC
  • Аудио кодек: AC3
  • Видео: 2500 Кбит/сек, 1024*576 (16:9), в 25,000 кадров/сек, AVC
  • Аудио №1: русский 384 Кбит/сек, 48,0 КГц, 16 бит, 2 канала, AC-3 |[BaibaKo]|
  • Аудио №2: английский 384 Кбит/сек, 48,0 КГц, 16 бит, 2 канала, AC-3
  • Релиз от: GEKADOL

    Код:

    Внимание! Раздача ведётся путём добавления новых серий; при каждом добавлении создаётся новый торрент. Чтобы начать докачку новой серии, пользователям необходимо сделать следующее:
    (1) остановить скачивание,
    (2) удалить старый торрент у себя из клиента (старые серии удалять не надо),
    (3) скачать новый торрент и запустить его у себя в клиенте вместо старого, при этом указать клиенту путь в старую папку куда и должно происходить скачивание новых серий.
    Ваш клиент при этом должен произвести хеширование (проверку) старой папки (если не производит сам - помогите ему сделать это), и будет докачивать только те серии которых у вас ещё нет. Старые серии при этом не удаляются, а продолжают раздаваться!
    Eсли вы уже удалили старые серии, то предотвратить повторную закачку старых серий можно, отжав галочку в соответствующих местах при запуске нового торрента. По возможности, желательно не удалять старые серии как можно дольше чтобы релизёр не столько продолжал раздавать старые серии, а смог сконцентрироваться на новых.


    Код:

    Общее
    Полное имя                               : H:\Джекилл и Хайд\Jekyll.and.Hyde.s01e01.WEB-DLRip-AVC.Rus.Eng.BaibaKo.tv.mp4
    Формат                                   : MPEG-4
    Профиль формата                          : Base Media
    Идентификатор кодека                     : isom
    Размер файла                             : 1,04 Гбайт
    Продолжительность                        : 47 м.
    Общий поток                              : 3160 Кбит/сек
    Программа кодирования                    : XviD4PSP 7.0.163
    encoding_info                            : MATROSKA / WEBM > MP4 / H264 > X264 CBR 2500kbps HQ1 / AC3 > AC3 CBR 384kbps / AC3 > AC3 CBR 384kbps

    Видео
    Идентификатор                            : 1
    Формат                                   : AVC
    Формат/Информация                        : Advanced Video Codec
    Профиль формата                          : High@L3.1
    Параметр CABAC формата                   : Да
    Параметр ReFrames формата                : 4 кадра
    Идентификатор кодека                     : avc1
    Идентификатор кодека/Информация          : Advanced Video Coding
    Продолжительность                        : 47 м.
    Битрейт                                  : 2500 Кбит/сек
    Ширина                                   : 1024 пикселя
    Высота                                   : 576 пикселей
    Соотношение сторон                       : 16:9
    Режим частоты кадров                     : Постоянный
    Частота кадров                           : 25,000 кадров/сек
    Цветовое пространство                    : YUV
    Субдискретизация насыщенности            : 4:2:0
    Битовая глубина                          : 8 бит
    Тип развёртки                            : Прогрессивная
    Бит/(Пиксели*Кадры)                      : 0.170
    Размер потока                            : 806 Мбайт (76%)
    Библиотека кодирования                   : x264 core 148 r2579M 73ae2d1
    Настройки программы                      : cabac=1 / ref=3 / deblock=1:-1:-1 / analyse=0x3:0x133 / me=hex / subme=7 / psy=1 / psy_rd=1,00:0,20 / mixed_ref=1 / me_range=16 / chroma_me=1 / trellis=1 / 8x8dct=1 / cqm=0 / deadzone=21,11 / fast_pskip=1 / chroma_qp_offset=-3 / threads=6 / lookahead_threads=1 / sliced_threads=0 / nr=0 / decimate=1 / interlaced=0 / bluray_compat=0 / constrained_intra=0 / bframes=3 / b_pyramid=2 / b_adapt=2 / b_bias=0 / direct=3 / weightb=1 / open_gop=0 / weightp=2 / keyint=250 / keyint_min=25 / scenecut=40 / intra_refresh=0 / rc_lookahead=40 / rc=cbr / mbtree=1 / bitrate=2500 / ratetol=1,0 / qcomp=0,60 / qpmin=0 / qpmax=69 / qpstep=4 / vbv_maxrate=2500 / vbv_bufsize=2500 / nal_hrd=none / filler=0 / ip_ratio=1,40 / aq=1:1,00
    Цветовой диапазон                        : Limited
    Основные цвета                           : BT.709
    Характеристики трансфера                 : BT.709
    Коэффициенты матрицы                     : BT.709

    Аудио #1
    Идентификатор                            : 2
    Формат                                   : AC-3
    Формат/Информация                        : Audio Coding 3
    Расширение режима                        : CM (complete main)
    Параметр Endianness формата              : Big
    Идентификатор кодека                     : ac-3
    Продолжительность                        : 47 м.
    Вид битрейта                             : Постоянный
    Битрейт                                  : 384 Кбит/сек
    Каналы                                   : 2 канала
    Расположение каналов                     : Front: L R
    Частота                                  : 48,0 КГц
    Битовая глубина                          : 16 бит
    Метод сжатия                             : С потерями
    Размер потока                            : 130 Мбайт (12%)
    Язык                                     : Russian

    Аудио #2
    Идентификатор                            : 3
    Формат                                   : AC-3
    Формат/Информация                        : Audio Coding 3
    Расширение режима                        : CM (complete main)
    Параметр Endianness формата              : Big
    Идентификатор кодека                     : ac-3
    Продолжительность                        : 47 м.
    Вид битрейта                             : Постоянный
    Битрейт                                  : 384 Кбит/сек
    Каналы                                   : 2 канала
    Расположение каналов                     : Front: L R
    Частота                                  : 48,0 КГц
    Битовая глубина                          : 16 бит
    Метод сжатия                             : С потерями
    Размер потока                            : 130 Мбайт (12%)
    Язык                                     : English


    Скриншоты:
    скриншот   скриншот   скриншот   скриншот   скриншот   скриншот  
    скриншот  

    Раздача ведётся путём добавления новых серий. Добавлена 10 серия (02.01.2016).Просьба перекачать торрент файл.

    pb.wtf



  • Скачать Джекилл и Хайд через торрент http://i76.fastpic.ru/big/2015/1101/c6/c6b5afc35e0eaea67e0d821d5b69cfc6.jpg Скачать фильм Джекилл и Хайд через торрент бесплантно в хорошем качестве qw.png Действие мистического триллера разворачивается в Лондоне 1930-х годов, а в центре сюжета оказывается внук доктора Джекила - ... 9.6 10 19
    Info! Золотая раздача, скачанное не засчитывается.
    Торрент: Зарегистрирован [2016-01-02 02:04] · скачан: 251 раз
    Статус: √ проверено
    Размер: 10.34 GB
    Как cкачать? Как скачать Джекилл и Хайд через торрент | qTorrent



    Последний раз редактировалось: GEKADOL (2016-01-02 02:04), всего редактировалось 8 раз(а)

    28-11-2019 20:33  

    Отключить всю рекламу на сайте

    08-11-2015 07:39 Джекилл и Хайд Скачать торрент  

    классно-смотрел все варианты про джекила и хайда-спасибо-обязательно глянемpb.wtf



    08-11-2015 13:20 Джекилл и Хайд Скачать торрент  

    GEKADOL, от души, дружище!!!! Жду полностью, а пока добавлю в закладки!!!!pb.wtf



    15-11-2015 03:08 Джекилл и Хайд Скачать торрент  

    pb.wtf



    26-11-2015 21:03 Джекилл и Хайд Скачать торрент  

    Не скачать 4 серию. Встаньте на раздачу плз.pb.wtf



    04-12-2015 14:40 Джекилл и Хайд Скачать торрент  

    огромное спасибо! hugpb.wtf



    02-01-2016 04:33 Джекилл и Хайд Скачать торрент  

    Тёмыч96 писал(а):

    GEKADOL, от души, дружище!!!! Жду полностью, а пока добавлю в закладки!!!!

    Вот и все) И С Новым Годом!!!))pb.wtf



    06-01-2016 15:33 Джекилл и Хайд Скачать торрент  

    Подскажите почему у меня не высвечивается не 1 аудио дорожка.... просто видео без звука... через MPC открываю...pb.wtf



    19-03-2016 02:51 Джекилл и Хайд Скачать торрент  

    нормальный триллерpb.wtf



      Дорогой пользователь! Огромная просьба, поблагодарите релизера, оцените раздачу и оставьте свои комментарий, если Вы скачали Джекилл и Хайд через торрент бесплатно! Внесите свою лепту в развитие PiratBit!
      Комментировать посты могут только пользователи прошедшие не сложную регистрацию
      Показать сообщения:    

      Джекилл и Хайд через торрент
      Скачать бесплатно Джекилл и Хайд
      Джекилл и Хайд скачать торрент
      Джекилл и Хайд смотреть онлайн
      Cкачать фильм Джекилл и Хайд бесплатно
      Джекилл и Хайд скачать торрент в хорошем качестве
      Джекилл и Хайд смотреть онлайн бесплатно в хорошем качестве


      Вы не можете начинать темы
      Вы не можете отвечать на сообщения
      Вы не можете редактировать свои сообщения
      Вы не можете удалять свои сообщения
      Вы не можете голосовать в опросах
      Вы не можете прикреплять файлы к сообщениям
      Вы можете скачивать файлы