Ссылка на приватное зеркало нашего сайта всего за 1$. Внимание количество ограничено!!!

2 сезон

iTunes

1 сезон

1

iTunes

iTunes

iTunes

1 сезон

RePack

30

ИГРА 18+

pack

ВАЖНО

!!Акция!!

Alien_RageХит недели

RePack

MK11
pack

Забери бонус

RePack

jed

!!Акция!!

Alien_Rage

RePack

fifa19

RePack

Assassins Creed: Odyssey

RePack

NEED FOR SPEED™ PAYBACK

4 сезон

9 сезон

Бесстыжие 9 сезон

Все сериалы

все сериалы на PB.wtf

RePack

FAR CRY 5
  

Впусти меня. Сага / Let Me In (Мэтт Ривз) [2010, ужасы, фэнтези, драма, BDRip 1080p by msltel] DUB pb.wtf

Впусти меня. Сага через торрент pb.wtf

Размер: 11.62 GB | Добавлен: 4 года 11 мес. назад | Торрент скачан:57 раз
Скачать  

02-11-2015 07:52 Впусти меня. Сага Скачать торрент  

Название: Впусти меня. Сага
Оригинальное название: Let Me In
Год выпуска: 2010
Страна: США, Великобритания
Жанр: ужасы, фэнтези, драма
Продолжительность: 01:55:48
Перевод: дублированный

Режиссёр: Мэтт Ривз

В ролях: Коди Смит-МакФи, Клои Грэйс Моретц, Ричард Дженкинс, Кара Буоно, Элиас Котеас, Александра Баррези, Дилан Кенин, Крис Браунинг, Ричи Костер, Дилан Миннетт

Описание: Действие фильма развивается в заснеженном пригороде Нью-Мехико, где живёт 12-летний мальчик-изгой Оуэн. Однажды в сумерках Оуэн знакомится со своей новой соседкой Эбби, но он даже не догадывается, что его первая любовь, невинная соседская девчонка, на самом деле — вампирша... Фильм снят по мотивам романа Юна Айвиде Линдквиста «Впусти меня» (Lat den ratte komma in, 2004).



Качество: BDRip 1080p Сравнение с исходником
Формат: MKV
Видео: MPEG-4 AVC, 11.9 Mбит/с, 1920x800, 23,976 кадра/с
Аудио 1: русский, DTS, 1509 kbps, 6 ch, 48 kHz [дублированный]
Аудио 2: английский, AC3, 640 kbps, 6 ch, 48 kHz [оригинал]
Субтитры 1: русские
Субтитры 2: английские
Общее
Уникальный идентификатор : 204733116675222306010676152431565849273 (0x9A0629FBFC74DF2EAE3317C6D4A7C2B9)
Полное имя : D:VideoВпусти меня.2010.BDRip.1080p.mkv
Формат : Matroska
Версия формата : Version 4 / Version 2
Размер файла : 11,6 Гбайт
Продолжительность : 1 ч. 55 м.
Общий поток : 14,4 Мбит/сек
Название фильма : BDRip -- STarankov
Дата кодирования : UTC 2015-11-02 03:05:13
Программа кодирования : mkvmerge v8.2.0 ('World of Adventure') 64bit
Библиотека кодирования : libebml v1.3.1 + libmatroska v1.4.2
DURATION : 01:55:47.968000000
NUMBER_OF_FRAMES : 217124
NUMBER_OF_BYTES : 555837440
_STATISTICS_WRITING_APP : mkvmerge v8.2.0 ('World of Adventure') 64bit
_STATISTICS_WRITING_DATE_UTC : 2015-11-02 03:05:13
_STATISTICS_TAGS : BPS DURATION NUMBER_OF_FRAMES NUMBER_OF_BYTES

Видео
Идентификатор : 1
Формат : AVC
Формат/Информация : Advanced Video Codec
Профиль формата : High@L4.1
Параметр CABAC формата : Да
Параметр ReFrames формата : 4 кадра
Идентификатор кодека : V_MPEG4/ISO/AVC
Продолжительность : 1 ч. 55 м.
Битрейт : 11,9 Мбит/сек
Ширина : 1920 пикселей
Высота : 800 пикселей
Соотношение сторон : 2,40:1
Режим частоты кадров : Постоянный
Частота кадров : 23,976 кадра/сек
Цветовое пространство : YUV
Субдискретизация насыщенности : 4:2:0
Битовая глубина : 8 бит
Тип развёртки : Прогрессивная
Бит/(Пиксели*Кадры) : 0.324
Размер потока : 9,66 Гбайт (83%)
Библиотека кодирования : x264 core 146 r2538 121396c
Настройки программы : cabac=1 / ref=4 / deblock=1:-1:-1 / analyse=0x3:0x113 / me=umh / subme=10 / psy=1 / psy_rd=1.00:0.15 / mixed_ref=1 / me_range=32 / chroma_me=1 / trellis=2 / 8x8dct=1 / cqm=0 / deadzone=21,11 / fast_pskip=1 / chroma_qp_offset=-3 / threads=6 / lookahead_threads=1 / sliced_threads=0 / nr=0 / decimate=1 / interlaced=0 / bluray_compat=0 / constrained_intra=0 / bframes=14 / b_pyramid=2 / b_adapt=2 / b_bias=0 / direct=1 / weightb=1 / open_gop=0 / weightp=2 / keyint=230 / keyint_min=23 / scenecut=40 / intra_refresh=0 / rc_lookahead=40 / rc=crf / mbtree=0 / crf=17.5 / qcomp=0.60 / qpmin=0 / qpmax=69 / qpstep=4 / vbv_maxrate=40000 / vbv_bufsize=50000 / crf_max=0.0 / nal_hrd=none / filler=0 / ip_ratio=1.40 / pb_ratio=1.30 / aq=1:1.00
Язык : English
Default : Да
Forced : Нет
DURATION : 01:55:47.941000000
NUMBER_OF_FRAMES : 166584
NUMBER_OF_BYTES : 10613650408
_STATISTICS_WRITING_APP : mkvmerge v8.2.0 ('World of Adventure') 64bit
_STATISTICS_WRITING_DATE_UTC : 2015-11-02 03:05:13
_STATISTICS_TAGS : BPS DURATION NUMBER_OF_FRAMES NUMBER_OF_BYTES

Аудио #1
Идентификатор : 2
Формат : DTS
Формат/Информация : Digital Theater Systems
Режим : 16
Параметр Endianness формата : Big
Идентификатор кодека : A_DTS
Продолжительность : 1 ч. 55 м.
Вид битрейта : Постоянный
Битрейт : 1509 Кбит/сек
Каналы : 6 каналов
Расположение каналов : Front: L C R, Side: L R, LFE
Частота : 48,0 КГц
Битовая глубина : 24 бит
Метод сжатия : С потерями
Размер потока : 1,22 Гбайт (10%)
Заголовок : DUB
Язык : Russian
Default : Да
Forced : Нет

Аудио #2
Идентификатор : 3
Формат : AC-3
Формат/Информация : Audio Coding 3
Расширение режима : CM (complete main)
Параметр Endianness формата : Big
Идентификатор кодека : A_AC3
Продолжительность : 1 ч. 55 м.
Вид битрейта : Постоянный
Битрейт : 640 Кбит/сек
Каналы : 6 каналов
Расположение каналов : Front: L C R, Side: L R, LFE
Частота : 48,0 КГц
Метод сжатия : С потерями
Размер потока : 530 Мбайт (4%)
Заголовок : Original
Язык : English
Default : Нет
Forced : Нет

Текст #1
Идентификатор : 4
Формат : UTF-8
Идентификатор кодека : S_TEXT/UTF8
Идентификатор кодека/Информация : UTF-8 Plain Text
Заголовок : русский
Язык : Russian
Default : Нет
Forced : Нет

Текст #2
Идентификатор : 5
Формат : UTF-8
Идентификатор кодека : S_TEXT/UTF8
Идентификатор кодека/Информация : UTF-8 Plain Text
Заголовок : английский
Default : Нет
Forced : Нет
pb.wtf



Скачать Впусти меня. Сага через торрент http://i66.fastpic.ru/big/2015/1031/0a/349b9f4bc2a0b4f5b3a30dc69a04080a.png Скачать фильм Впусти меня. Сага через торрент бесплантно в хорошем качестве Описание: Действие фильма развивается в заснеженном пригороде Нью-Мехико, где живёт 12-летний мальчик-изгой Оуэн. Однажды в сумерках Оуэн ... 10 10 4
Info! Золотая раздача, скачанное не засчитывается.
Торрент: Зарегистрирован [2015-11-02 07:52] · скачан: 57 раз
Статус: √ проверено
Размер: 11.62 GB
Как cкачать? Как скачать Впусти меня. Сага через торрент | qTorrent

% Раздел Тема Автор DL S | L
Фильмы [HD 720p, 1080p] (Хороший звук DUB, MVO) [ 4.13 GB ] Впусти меня. Сага / Let Me In [2010 BDRip 720p by msltel] DUB msltel Скачать
1 | 0
Фильмы 2010 [ 2.34 GB ] Впусти меня. Сага / Let Me In [2010 BDRip AVC by msltel] DUB msltel Скачать
1 | 0
Фильмы (Blu-ray, BD-Remux, HDDVD) [ 28.1 GB ] Впусти меня. Сага / Let Me In [2010 BD-Remux DUB лицензия] Pavlin Скачать
1 | 0

28-11-2019 20:33  

Отключить всю рекламу на сайте

    Дорогой пользователь! Огромная просьба, поблагодарите релизера, оцените раздачу и оставьте свои комментарий, если Вы скачали Впусти меня. Сага через торрент бесплатно! Внесите свою лепту в развитие PiratBit!
    Комментировать посты могут только пользователи прошедшие не сложную регистрацию
    Показать сообщения:    

    Впусти меня. Сага через торрент
    Скачать бесплатно Впусти меня. Сага
    Впусти меня. Сага скачать торрент
    Впусти меня. Сага смотреть онлайн
    Cкачать фильм Впусти меня. Сага бесплатно
    Впусти меня. Сага скачать торрент в хорошем качестве
    Впусти меня. Сага смотреть онлайн бесплатно в хорошем качестве


    Вы не можете начинать темы
    Вы не можете отвечать на сообщения
    Вы не можете редактировать свои сообщения
    Вы не можете удалять свои сообщения
    Вы не можете голосовать в опросах
    Вы не можете прикреплять файлы к сообщениям
    Вы можете скачивать файлы