Ссылка на приватное зеркало всего за 1$. Внимание количество ограничено!!!

iTunes

iTunes

iTunes

1

iTunes

iTunes

iTunes

iTunes

iTunes

30
pack

$ от Little Big

ВАЖНО

!!Акция!!

Alien_RageХит недели

RePack

Resident Evil 21

ИГРА 18+

pack

RePack

jed

!!Акция!!

Alien_Rage

RePack

fifa19

RePack

Assassins Creed: Odyssey

RePack

NEED FOR SPEED™ PAYBACK

4 сезон

9 сезон

Бесстыжие 9 сезон

Все сериалы

все сериалы на PB.wtf

RePack

FAR CRY 5
  

Круг / Circle (Аарон Ханн, Марио Мисионе) [2015, Ужасы, фантастика, триллер, драма, WEB-DL 720p] VO pb.wtf

Круг через торрент pb.wtf

Размер: 2.85 GB | Добавлен: 4 года 8 мес. назад | Торрент скачан:251 раз
Скачать  

03-11-2015 07:12 Круг Скачать торрент  

Название: Круг

Оригинальное название: Circle

Год выпуска: 2015

Жанр: Ужасы, фантастика, триллер, драма

Продолжительность: 01:26:27

Перевод: Любительский одноголосый

Субтитры: Русские, английские

Озвучивание: Любительское одноголосое (Павел Морозов aka PashaUp) по субтитрам dlz099

Выпущено: США, Taggart Productions, Votiv Films

Режиссер: Аарон Ханн, Марио Мисионе

В ролях: Джули Бенц, Картер Дженкинс, Мерси Мэлик, Мэтт Корбой, Лиза Пеликан, Сесар Гарсиа Гомес, Сара Сэндерсон, Кевин Шеридан, Коли Мустафа Спикс, Хорди Виласусо

Описание: Пятьдесят незнакомцев просыпаются в огромной камере, не имея понятия о том, как попали сюда. Собранные в круг и не способные двигаться, они быстро понимают, что каждые две минуты одного из них будет убивать странное устройство в центре комнаты. Вскоре им становится ясно, что жертва выбирается не случайно, а ими самими, что они могут коллективно влиять на выбор, который делает машина. Но как решить, кто заслуживает умереть? И что будет, когда останется лишь один человек?


Качество: WEB-DL 720p
Формат: MKV
Видео: MPEG-4 AVC, 4057 Кбит/с, 1280x532, 23,976 кадра/сек
Аудио: Русский (АС3, 2 ch, 192 Кбит/с), 48.0 KHz
Аудио:английский (АС3, 6 ch, 384 Кбит/с), 48.0 KHz

Семпл
Общее
Уникальный идентификатор : 172462512704592906916687276960664847990 (0x81BF125E38AB7A75A68FF82842CD0676)
Полное имя : D:\Торенты\Krug.2015.PashaUp.WEB-DL.720p.mkv
Формат : Matroska
Версия формата : Version 4 / Version 2
Размер файла : 2,85 Гбайт
Продолжительность : 1 ч. 26 м.
Общий поток : 4727 Кбит/сек
Дата кодирования : UTC 2015-11-03 01:08:24
Программа кодирования : mkvmerge v7.3.0 ('Nouages') 32bit built on Oct 22 2014 18:44:01
Библиотека кодирования : libebml v1.3.0 + libmatroska v1.4.1

Видео
Идентификатор : 1
Формат : AVC
Формат/Информация : Advanced Video Codec
Профиль формата : Main@L3.1
Параметр CABAC формата : Нет
Параметр ReFrames формата : 2 кадра
Идентификатор кодека : V_MPEG4/ISO/AVC
Продолжительность : 1 ч. 26 м.
Битрейт : 4057 Кбит/сек
Ширина : 1280 пикселей
Высота : 532 пикселя
Соотношение сторон : 2,40:1
Режим частоты кадров : Постоянный
Частота кадров : 23,976 кадра/сек
Цветовое пространство : YUV
Субдискретизация насыщенности : 4:2:0
Битовая глубина : 8 бит
Тип развёртки : Прогрессивная
Бит/(Пиксели*Кадры) : 0.249
Размер потока : 2,45 Гбайт (86%)
Язык : English
Default : Да
Forced : Нет
Основные цвета : BT.709
Характеристики трансфера : BT.709
Коэффициенты матрицы : BT.709
colour_range : Limited

Аудио #1
Идентификатор : 2
Формат : AC-3
Формат/Информация : Audio Coding 3
Расширение режима : CM (complete main)
Параметр Endianness формата : Big
Идентификатор кодека : A_AC3
Продолжительность : 1 ч. 26 м.
Вид битрейта : Постоянный
Битрейт : 192 Кбит/сек
Каналы : 2 канала
Расположение каналов : Front: L R
Частота : 48,0 КГц
Битовая глубина : 16 бит
Метод сжатия : С потерями
Размер потока : 119 Мбайт (4%)
Язык : Russian
Default : Да
Forced : Нет

Аудио #2
Идентификатор : 3
Формат : AC-3
Формат/Информация : Audio Coding 3
Расширение режима : CM (complete main)
Параметр Endianness формата : Big
Идентификатор кодека : A_AC3
Продолжительность : 1 ч. 26 м.
Вид битрейта : Постоянный
Битрейт : 384 Кбит/сек
Каналы : 6 каналов
Расположение каналов : Front: L C R, Side: L R, LFE
Частота : 48,0 КГц
Битовая глубина : 16 бит
Метод сжатия : С потерями
Размер потока : 237 Мбайт (8%)
Язык : English
Default : Нет
Forced : Нет

Текст #1
Идентификатор : 4
Формат : UTF-8
Идентификатор кодека : S_TEXT/UTF8
Идентификатор кодека/Информация : UTF-8 Plain Text
Язык : Russian
Default : Нет
Forced : Нет

Текст #2
Идентификатор : 5
Формат : UTF-8
Идентификатор кодека : S_TEXT/UTF8
Идентификатор кодека/Информация : UTF-8 Plain Text
Язык : English
Default : Нет
Forced : Нет

Меню
00:00:00.000 : en:1
00:11:00.000 : en:2
00:20:39.000 : en:3
00:31:27.000 : en:4
00:44:16.000 : en:5
01:02:03.000 : en:6
01:14:12.000 : en:7
01:22:51.000 : en:8
pb.wtf



Скачать Круг через торрент http://s61.radikal.ru/i174/1511/cf/8364313a5b08.jpg Скачать фильм Круг через торрент бесплантно в хорошем качестве Описание: Пятьдесят незнакомцев просыпаются в огромной камере, не имея понятия о том, как попали сюда. Собранные в круг и не способные ... 9.7 10 3
Торрент: Зарегистрирован [2015-11-03 07:12] · скачан: 251 раз
Статус: T временная
Размер: 2.85 GB
Как cкачать? Как скачать Круг через торрент | qTorrent

% Раздел Тема Автор DL S | L
Фильмы с авторской озвучкой [ 2.2 GB ] Круг / Cirkeln / The Circle [2015 BDRip] [AVO] killermax2013 Скачать
1 | 0
T Фильмы 2015 (Звук TS, Cam, VO, DVO) [ 1.37 GB ] Круг / Circle [2015 WEB-DLRip] VO Ворон Скачать
1 | 0
Фильмы 2013 (Звук TS, Cam, VO, DVO) [ 1.37 GB ] Темные круги / Dark Circles [ 2013 DVDRip] VO [den904] Ворон Скачать
1 | 0

28-11-2019 20:33  

Отключить всю рекламу на сайте

    Дорогой пользователь! Огромная просьба, поблагодарите релизера, оцените раздачу и оставьте свои комментарий, если Вы скачали Круг через торрент бесплатно! Внесите свою лепту в развитие PiratBit!
    Комментировать посты могут только пользователи прошедшие не сложную регистрацию
    Показать сообщения:    

    Круг через торрент
    Скачать бесплатно Круг
    Круг скачать торрент
    Круг смотреть онлайн
    Cкачать фильм Круг бесплатно
    Круг скачать торрент в хорошем качестве
    Круг смотреть онлайн бесплатно в хорошем качестве


    Вы не можете начинать темы
    Вы не можете отвечать на сообщения
    Вы не можете редактировать свои сообщения
    Вы не можете удалять свои сообщения
    Вы не можете голосовать в опросах
    Вы не можете прикреплять файлы к сообщениям
    Вы можете скачивать файлы