Ссылка на приватное зеркало всего за 1$. Внимание количество ограничено!!!

OK

1+1

iTunes

мы

OK

1

WEB-DLRip

Джокер

Пифагор

Ведьмак / The Witcher сериал

iTunes

ПШазам

ОК

Оно 2

iTunes

30
pack

Вам бонус

ВАЖНО

!!Акция!!

Alien_RageХит недели

RePack

Resident Evil 21

ИГРА 18+

pack

RePack

jed

RePack

fifa19

RePack

Assassins Creed: Odyssey

RePack

NEED FOR SPEED™ PAYBACK

4 сезон

9 сезон

Бесстыжие 9 сезон

Все сериалы

все сериалы на PB.wtf

RePack

FAR CRY 5
  

Врата тьмы / Pay the Ghost (Ули Эдель / Uli Edel) [2015, ужасы, триллер, BDRip-AVC от potroks] Dub [iTunes] pb.wtf

Врата тьмы через торрент pb.wtf

Размер: 1.46 GB | Добавлен: 4 года 2 мес. назад | Торрент скачан:1229 раз
Скачать  

03-11-2015 13:56 Врата тьмы Скачать торрент  

Врата тьмы / Pay the Ghost
«Мир мёртвых ближе, чем кажется»
Год выпуска: 2015
Страна: Канада / Midnight Kitchen Productions, Voltage Films
Жанр: ужасы, триллер
Продолжительность: 01:34:06
Перевод: Дубляж [iTunes]
Субтитры: английские (Full), английские (SDH), английские (SDH-Colored)
Навигация по главам: есть
Режиссер: Ули Эдель / Uli Edel
В ролях:

Николас Кейдж (Mike Lawford), Сара Уэйн Кэллис (Kristen), Вероника Феррес (Hannah), Лайрик Бент (Jordan), Лорен Битти (Annie Sawquin), Кэли Хантер (Ghost Annie), Джек Фултон (Charlie), Стивен МакХэтти (Blind Man), Сюзанна Хоффман (Jane), Хуан Карлос Велис (Morales), Марк Ирвингсен (Angry Villager #1), Лайам Бакл (Eldest Child)
Описание: Существует древнее поверье, что раз в год, на Хэллоуин, открываются врата между миром живых и миром мертвых. В этот день зло практически всесильно...
Во время ночного праздничного парада в Нью-Йорке у профессора Майка Кола бесследно пропадает его маленький сын. Полиции не удается найти ребенка, однако после собственного расследования отец узнает, что некое мощное древнее проклятие забирает детей каждый год. Чтобы вернуть себе своего сына, у него есть только один шанс - в ночь на Хэллоуин отправиться по ту сторону врат тьмы....

Качество: BDRip-AVC
Формат: MKV
Видео кодек: AVC
Аудио кодек: AC3
Видео: 1032x430 (2.40:1), 1838 kbps, 23,976 fps, 0,173 bit/pixel
Аудио: AC3 / 5.1 / 48 kHz / 384 kbps / 16 bit

Релиз группы:
Автор рипа: potroks

Код:

General
Unique ID                                : 236003447699774098544939732821805000128 (0xB18C9C56341D91AC8D773A2EAF3665C0)
Complete name                            : Vrata.T'my.2015.RUS.BDRip.x264.-HELLYWOOD.mkv
Format                                   : Matroska
Format version                           : Version 4 / Version 2
File size                                : 1.46 GiB
Duration                                 : 1h 34mn
Overall bit rate                         : 2 224 Kbps
Movie name                               : Pay the Ghost (2015) - HELLYWOOD
Encoded date                             : UTC 2010-02-22 21:41:31
Writing application                      : mkvmerge v5.8.0 ('No Sleep / Pillow') built on Sep 30 2012 10:57:14
Writing library                          : libebml v1.3.0 + libmatroska v1.4.0

Video
ID                                       : 1
Format                                   : AVC
Format/Info                              : Advanced Video Codec
Format profile                           : High@L4.1
Format settings, CABAC                   : Yes
Format settings, ReFrames                : 11 frames
Codec ID                                 : V_MPEG4/ISO/AVC
Duration                                 : 1h 34mn
Bit rate                                 : 1 838 Kbps
Width                                    : 1 032 pixels
Height                                   : 430 pixels
Display aspect ratio                     : 2.40:1
Frame rate                               : 23.976 fps
Color space                              : YUV
Chroma subsampling                       : 4:2:0
Bit depth                                : 8 bits
Scan type                                : Progressive
Bits/(Pixel*Frame)                       : 0.173
Stream size                              : 1.18 GiB (81%)
Title                                    : potroks
Writing library                          : x264 core 146 r2538 121396c
Encoding settings                        : cabac=1 / ref=11 / deblock=1:-2:-2 / analyse=0x3:0x113 / me=umh / subme=11 / psy=1 / psy_rd=1.00:0.02 / mixed_ref=1 / me_range=48 / chroma_me=1 / trellis=2 / 8x8dct=1 / cqm=0 / deadzone=21,11 / fast_pskip=0 / chroma_qp_offset=-3 / threads=9 / lookahead_threads=2 / sliced_threads=0 / nr=0 / decimate=0 / interlaced=0 / bluray_compat=0 / constrained_intra=0 / bframes=12 / b_pyramid=2 / b_adapt=2 / b_bias=0 / direct=3 / weightb=1 / open_gop=0 / weightp=2 / keyint=250 / keyint_min=23 / scenecut=40 / intra_refresh=0 / rc_lookahead=60 / rc=2pass / mbtree=0 / bitrate=1838 / ratetol=1.0 / qcomp=0.70 / qpmin=0 / qpmax=69 / qpstep=4 / cplxblur=20.0 / qblur=0.5 / vbv_maxrate=14000 / vbv_bufsize=14000 / nal_hrd=none / filler=0 / ip_ratio=1.35 / pb_ratio=1.25 / aq=1:0.80
Language                                 : English
Default                                  : Yes
Forced                                   : No

Audio
ID                                       : 2
Format                                   : AC-3
Format/Info                              : Audio Coding 3
Mode extension                           : CM (complete main)
Codec ID                                 : A_AC3
Duration                                 : 1h 34mn
Bit rate mode                            : Constant
Bit rate                                 : 384 Kbps
Channel(s)                               : 6 channels
Channel positions                        : Front: L C R, Side: L R, LFE
Sampling rate                            : 48.0 KHz
Bit depth                                : 16 bits
Compression mode                         : Lossy
Stream size                              : 258 MiB (17%)
Title                                    : Dub | DD 5.1 @ 384 kbps - iTunes
Language                                 : Russian
Default                                  : Yes
Forced                                   : No

Text #1
ID                                       : 3
Format                                   : UTF-8
Codec ID                                 : S_TEXT/UTF8
Codec ID/Info                            : UTF-8 Plain Text
Title                                    : Full
Language                                 : English
Default                                  : No
Forced                                   : No

Text #2
ID                                       : 4
Format                                   : UTF-8
Codec ID                                 : S_TEXT/UTF8
Codec ID/Info                            : UTF-8 Plain Text
Title                                    : SDH
Language                                 : English
Default                                  : No
Forced                                   : No

Text #3
ID                                       : 5
Format                                   : UTF-8
Codec ID                                 : S_TEXT/UTF8
Codec ID/Info                            : UTF-8 Plain Text
Title                                    : SDH-Colored
Language                                 : English
Default                                  : No
Forced                                   : No

Menu
00:00:00.000                             : en:(01)00:00:00:000
00:07:42.628                             : en:(02)00:07:42:628
00:15:03.694                             : en:(03)00:15:03:694
00:25:59.307                             : en:(04)00:25:59:307
00:31:40.481                             : en:(05)00:31:40:481
00:38:20.089                             : en:(06)00:38:20:089
00:48:40.751                             : en:(07)00:48:40:751
00:58:50.527                             : en:(08)00:58:50:527
01:06:41.539                             : en:(09)01:06:41:539
01:12:39.063                             : en:(10)01:12:39:063
01:16:41.847                             : en:(11)01:16:41:847
01:28:33.558                             : en:(12)01:28:33:558

pb.wtf



Скачать Врата тьмы через торрент http://i74.fastpic.ru/big/2015/1103/31/00e5ebb8dc9321cc8cd620157370ed31.png Скачать фильм Врата тьмы через торрент бесплантно в хорошем качестве Описание: Существует древнее поверье, что раз в год, на Хэллоуин, открываются врата между миром живых и миром мертвых. В этот день зло ... 9.1 10 24
Info! Золотая раздача, скачанное не засчитывается.
Торрент: Зарегистрирован [2015-11-03 13:56] · скачан: 1 229 раз
Статус: √ проверено
Размер: 1.46 GB
Как cкачать? Как скачать Врата тьмы через торрент | qTorrent

% Раздел Тема Автор DL S | L
Фильмы [HD 720p, 1080p] (Хороший звук DUB, MVO) [ 12.34 GB ] Врата тьмы / Pay the Ghost [2015 BDRip 1080p] bober100 Скачать
1 | 0
Фильмы (HD 720p, 1080p) (48-60 fps) [ 6.73 GB ] Врата тьмы / Pay the Ghost [2015 BDRip 720p / 60fps - ] от R.G. HD-Films Ressident Скачать
2 | 0
Фильмы (Blu-ray, BD-Remux, HDDVD) [ 21.21 GB ] Врата тьмы / Pay the Ghost [2015 Blu-ray 1080p от NovaLan / ] Russian Mafia Скачать
1 | 0
Фильмы [HD 720p, 1080p] (Хороший звук DUB, MVO) [ 3.33 GB ] Врата тьмы / Pay the Ghost [2015 BDRip 720p] Dub potroks Скачать
1 | 0
Фильмы (WEB-DL 720p, 1080p) [ 3.13 GB ] Врата тьмы / Pay the Ghost [2015 WEB-DL 1080p ] -Lexx- Скачать
1 | 0
Фильмы 2015 [DVDrip, WEB-DLRip, HDrip] [ 1.37 GB ] Врата тьмы / Pay the Ghost [2015 HDRip] diletant Скачать
1 | 0
Фильмы 2015 [DVDrip, WEB-DLRip, HDrip] [ 2.13 GB ] Врата тьмы / Pay the Ghost [2015 BDRip-AVC от sokol_ok] Dub sokol_ok Скачать
2 | 0

28-11-2019 20:33  

Отключить всю рекламу на сайте

20-11-2015 10:16 Врата тьмы Скачать торрент  

кто смотрел? норм фильм или кейдж продолжает сниматься в унылом....?pb.wtf



    Дорогой пользователь! Огромная просьба, поблагодарите релизера, оцените раздачу и оставьте свои комментарий, если Вы скачали Врата тьмы через торрент бесплатно! Внесите свою лепту в развитие PiratBit!
    Комментировать посты могут только пользователи прошедшие не сложную регистрацию
    Показать сообщения:    

    Врата тьмы через торрент
    Скачать бесплатно Врата тьмы
    Врата тьмы скачать торрент
    Врата тьмы смотреть онлайн
    Cкачать фильм Врата тьмы бесплатно
    Врата тьмы скачать торрент в хорошем качестве
    Врата тьмы смотреть онлайн бесплатно в хорошем качестве


    Вы не можете начинать темы
    Вы не можете отвечать на сообщения
    Вы не можете редактировать свои сообщения
    Вы не можете удалять свои сообщения
    Вы не можете голосовать в опросах
    Вы не можете прикреплять файлы к сообщениям
    Вы можете скачивать файлы