Marvel's Avengers Deluxe Edition (супер цена) 159р. Внимание количество ограничено!!!

2 сезон

iTunes

iTunes

1

iTunes

iTunes

iTunes

WEBRip

iTunes

30
pack

Новость дня

ВАЖНО

!!Акция!!

Alien_RageХит недели

RePack

Horizon Zero Dawn

ИГРА 18+

pack

RePack

jed

!!Акция!!

Alien_Rage

RePack

fifa19

RePack

Assassins Creed: Odyssey

RePack

NEED FOR SPEED™ PAYBACK

4 сезон

9 сезон

Бесстыжие 9 сезон

Все сериалы

все сериалы на PB.wtf

RePack

FAR CRY 5
  

Миссия невыполнима: Племя изгоев / Mission: Impossible - Rogue Nation (Кристофер МакКуорри / Christopher McQuarrie) [2015, США, Гонконг, Китай, боевик, триллер, приключения, BDRip-AVC от sokol_ok] DUB Лицензия pb.wtf

Миссия невыполнима: Племя изгоев через торрент pb.wtf

Размер: 2.17 GB | Добавлен: 4 года 9 мес. назад | Торрент скачан:550 раз
Скачать  

03-11-2015 15:11 Миссия невыполнима: Племя изгоев Скачать торрент  

Миссия невыполнима: Племя изгоев
Mission: Impossible - Rogue Nation

«Go rogue»




Страна: США, Гонконг, Китай
Жанр: боевик, триллер, приключения

Год выпуска: 2015
Продолжительность: 02:11:33

Перевод: Профессиональный (полное дублирование) [Лицензия BD CEE]
Субтитры: Русские (форсированные, полные), Английские (форсированные, полные)
Оригинальная аудиодорожка: Английский

Режиссер: Кристофер МакКуорри / Christopher McQuarrie

В ролях: Том Круз, Ребекка Фергюсон, Саймон Пегг, Джереми Реннер, Винг Реймз, Шон Харрис, Алек Болдуин, Саймон МакБерни, Йенс Хультен, Том Холландер, Чжан Цзинчу, Матео Руфино

Описание:
Когда ОМН распускают, и Итан Хант остается не у дел, его команда неожиданно сталкивается с разветвленной международной сетью высокопрофессиональных спецагентов - Синдикатом. Это «племя изгоев» одержимо идеей установления нового мирового порядка и планирует серию разрушительных терактов. Итан и компания объединяются с дискредитированным британским агентом Ильзой Фауст и приступают к своей самой невыполнимой миссии...


Релиз:

Автор рипа: Stalker oK

Сэмпл

Качество видео: BDRip-AVC [Blu-ray Remux 1080p]
Формат видео: MKV
Видео кодек: AVC
Аудио кодек: AC3
Видео: 1476 Кбит/сек, 960x402 (2.35:1), 23,976 кадр/сек, AVC
Аудио №1: Russian, 448 Кбит/сек, 48,0 КГц, 16 бит, 6 канала(ов), AC-3
Аудио №2: English, 448 Кбит/сек, 48,0 КГц, 16 бит, 6 канала(ов), AC-3
Навигация по главам: есть
Общее
Уникальный идентификатор : 190602534439208573627286014785411974180 (0x8F64B67DAEA019E68D0C625F03098424)
Полное имя : N:\Rips\MISSION_IMPOSSIBLE_ROGUE_NATION\Mission.Impossible.Rogue.Nation.2015.BDRip-AVC.Dub.2.18Gb...stalkerok.new-team.mkv
Формат : Matroska
Размер файла : 2,17 Гбайт
Продолжительность : 2 ч. 11 м.
Общий поток : 2357 Кбит/сек
Название фильма : Mission: Impossible - Rogue Nation (2015) (New-Team) (Rip by Stalker oK)
Дата кодирования : UTC 2015-11-21 10:09:36
Программа кодирования : mkvmerge v7.9.0 ('Birds') 64bit
Библиотека кодирования : libebml v1.3.1 + libmatroska v1.4.2

Видео
Идентификатор : 1
Формат : AVC
Формат/Информация : Advanced Video Codec
Профиль формата : High@L4.1
Параметр CABAC формата : Да
Параметр ReFrames формата : 12 кадры
Параметры GOP формата : M=14, N=44
Идентификатор кодека : V_MPEG4/ISO/AVC
Продолжительность : 2 ч. 11 м.
Битрейт : 1476 Кбит/сек
Ширина : 960 пикс.
Высота : 402 пикс.
Соотношение сторон : 2,35:1
Частота кадров : 23,976 кадр/сек
Цветовое пространство : YUV
Подвыборка цветности : 4:2:0
Битовая глубина : 8 бит
Тип развёртки : Прогрессивная
Бит/(Пиксели*Кадры) : 0.160
Размер потока : 1,30 Гбайт (60%)
Заголовок : Mission: Impossible - Rogue Nation (2015) (New-Team) (Rip by Stalker oK)
Библиотека кодирования : x264 core 146 r2538kMod 121396c
Настройки программы : cabac=1 / ref=12 / deblock=1:-3:-3 / analyse=0x3:0x133 / me=umh / subme=11 / psy=1 / fade_compensate=0.00 / psy_rd=1.00:0.10 / mixed_ref=1 / me_range=48 / chroma_me=1 / trellis=2 / 8x8dct=1 / cqm=0 / deadzone=21,11 / fast_pskip=0 / chroma_qp_offset=-3 / threads=12 / lookahead_threads=3 / sliced_threads=0 / nr=0 / decimate=0 / interlaced=0 / bluray_compat=0 / constrained_intra=0 / fgo=0 / bframes=13 / b_pyramid=2 / b_adapt=2 / b_bias=0 / direct=3 / weightb=1 / open_gop=0 / weightp=2 / keyint=240 / keyint_min=23 / scenecut=40 / intra_refresh=0 / rc_lookahead=60 / rc=2pass / mbtree=0 / bitrate=1476 / ratetol=1.0 / qcomp=0.70 / qpmin=0 / qpmax=69 / qpstep=4 / cplxblur=20.0 / qblur=0.5 / vbv_maxrate=50000 / vbv_bufsize=62500 / nal_hrd=none / filler=0 / ip_ratio=1.40 / pb_ratio=1.30 / aq=3:0.90

Аудио #1
Идентификатор : 2
Формат : AC-3
Формат/Информация : Audio Coding 3
Расширение режима : CM (complete main)
Идентификатор кодека : A_AC3
Продолжительность : 2 ч. 11 м.
Вид битрейта : Постоянный
Битрейт : 448 Кбит/сек
Канал(ы) : 6 канала(ов)
Расположение каналов : Front: L C R, Side: L R, LFE
Частота : 48,0 КГц
Битовая глубина : 16 бит
Метод сжатия : С потерями
Размер потока : 422 Мбайт (19%)
Язык : Russian

Аудио #2
Идентификатор : 3
Формат : AC-3
Формат/Информация : Audio Coding 3
Расширение режима : CM (complete main)
Идентификатор кодека : A_AC3
Продолжительность : 2 ч. 11 м.
Вид битрейта : Постоянный
Битрейт : 448 Кбит/сек
Канал(ы) : 6 канала(ов)
Расположение каналов : Front: L C R, Side: L R, LFE
Частота : 48,0 КГц
Битовая глубина : 16 бит
Метод сжатия : С потерями
Размер потока : 422 Мбайт (19%)
Язык : English

Текст #1
Идентификатор : 4
Формат : UTF-8
Идентификатор кодека : S_TEXT/UTF8
Идентификатор кодека/Информация : UTF-8 Plain Text
Заголовок : Forced
Язык : Russian

Текст #2
Идентификатор : 5
Формат : UTF-8
Идентификатор кодека : S_TEXT/UTF8
Идентификатор кодека/Информация : UTF-8 Plain Text
Заголовок : Full
Язык : Russian

Текст #3
Идентификатор : 6
Формат : UTF-8
Идентификатор кодека : S_TEXT/UTF8
Идентификатор кодека/Информация : UTF-8 Plain Text
Заголовок : Forced
Язык : English

Текст #4
Идентификатор : 7
Формат : UTF-8
Идентификатор кодека : S_TEXT/UTF8
Идентификатор кодека/Информация : UTF-8 Plain Text
Язык : English

Меню
00:00:00.000 : en:Chapter 1
00:09:53.091 : en:Chapter 2
00:20:45.701 : en:Chapter 3
00:25:32.071 : en:Chapter 4
00:32:00.667 : en:Chapter 5
00:40:03.442 : en:Chapter 6
00:49:35.554 : en:Chapter 7
01:01:01.157 : en:Chapter 8
01:09:51.686 : en:Chapter 9
01:20:20.856 : en:Chapter 10
01:29:29.322 : en:Chapter 11
01:38:32.823 : en:Chapter 12
01:48:19.408 : en:Chapter 13
01:57:13.943 : en:Chapter 14
02:03:02.707 : en:Chapter 15
pb.wtf



Скачать Миссия невыполнима: Племя изгоев через торрент http://i72.fastpic.ru/big/2015/0531/46/68ef8a2783b58e5344cc30bbd3f1b046.png Скачать фильм Миссия невыполнима: Племя изгоев через торрент бесплантно в хорошем качестве Описание:Когда ОМН распускают, и Итан Хант остается не у дел, его команда неожиданно сталкивается с разветвленной международной сетью ... 9.2 10 32
Info! Серебряная раздача, засчитывается только 50% скачанного.
Торрент: Зарегистрирован [2015-11-21 10:33] · скачан: 550 раз
Статус: √ проверено
Размер: 2.17 GB
Как cкачать? Как скачать Миссия невыполнима: Племя изгоев через торрент | qTorrent

% Раздел Тема Автор DL S | L
Ultra HD (UHD: 2K, 4K, 8K) — видео сверхвысокой чёткости [ 16.07 GB ] Миссия невыполнима: Племя изгоев / Mission: Impossible - Rogue Nation [2015 UHD WEBRip 2160p] 2xDUB [] bober100 Скачать
1 | 0
Фильмы 2015 [DVDrip, WEB-DLRip, HDrip] [ 1.46 GB ] Миссия невыполнима: Племя изгоев / Mission: Impossible - Rogue Nation [2015 Гонконг Китай BDRip] DUB Twi7ter Скачать
1 | 0
Фильмы [HD 720p, 1080p] (Хороший звук DUB, MVO) [ 5.72 GB ] Миссия невыполнима: Племя изгоев / Mission: Impossible - Rogue Nation [2015 BDRip 720p] DUB potroks Скачать
1 | 0
Фильмы 2015 [DVDrip, WEB-DLRip, HDrip] [ 2.95 GB ] Миссия невыполнима: Племя изгоев / Mission: Impossible - Rogue Nation [2015 BDRip-AVC] DUB potroks Скачать
1 | 0
Фильмы 2015 [DVDrip, WEB-DLRip, HDrip] [ 1.65 GB ] Миссия невыполнима: Племя изгоев / Mission: Impossible - Rogue Nation [2015 BDRip-AVC] DUB potroks Скачать
1 | 0
Фильмы 2015 [DVDrip, WEB-DLRip, HDrip] [ 1.46 GB ] Миссия невыполнима: Племя изгоев / Mission: Impossible - Rogue Nation [2015 Гонконг Китай BDRip-AVC от sokol_ok] DUB sokol_ok Скачать
2 | 0
Фильмы (Blu-ray, BD-Remux, HDDVD) [ 28.03 GB ] Миссия невыполнима: Племя изгоев / Mission: Impossible - Rogue Nation [2015 Blu-Ray Remux 1080p] killermax2013 Скачать
1 | 0


Последний раз редактировалось: sokol_ok (2015-11-21 10:36), всего редактировалось 1 раз

28-11-2019 20:33  

Отключить всю рекламу на сайте

21-11-2015 10:33 Миссия невыполнима: Племя изгоев Скачать торрент  

Замена звука iTunes на BD CEEpb.wtf



24-11-2015 05:47 Миссия невыполнима: Племя изгоев Скачать торрент  

Ace stream не открывает. Пишет cannot load transport file! Что изменилось?pb.wtf



    Дорогой пользователь! Огромная просьба, поблагодарите релизера, оцените раздачу и оставьте свои комментарий, если Вы скачали Миссия невыполнима: Племя изгоев через торрент бесплатно! Внесите свою лепту в развитие PiratBit!
    Комментировать посты могут только пользователи прошедшие не сложную регистрацию
    Показать сообщения:    

    Миссия невыполнима: Племя изгоев через торрент
    Скачать бесплатно Миссия невыполнима: Племя изгоев
    Миссия невыполнима: Племя изгоев скачать торрент
    Миссия невыполнима: Племя изгоев смотреть онлайн
    Cкачать фильм Миссия невыполнима: Племя изгоев бесплатно
    Миссия невыполнима: Племя изгоев скачать торрент в хорошем качестве
    Миссия невыполнима: Племя изгоев смотреть онлайн бесплатно в хорошем качестве


    Вы не можете начинать темы
    Вы не можете отвечать на сообщения
    Вы не можете редактировать свои сообщения
    Вы не можете удалять свои сообщения
    Вы не можете голосовать в опросах
    Вы не можете прикреплять файлы к сообщениям
    Вы можете скачивать файлы