Ссылка на приватное зеркало всего за 1$. Внимание количество ограничено!!!

OK

1+1

iTunes

мы

OK

1

WEB-DLRip

Джокер

Пифагор

Ведьмак / The Witcher сериал

iTunes

ПШазам

ОК

Оно 2

iTunes

30
pack

Вам бонус

ВАЖНО

!!Акция!!

Alien_RageХит недели

RePack

Resident Evil 21

ИГРА 18+

pack

RePack

jed

RePack

fifa19

RePack

Assassins Creed: Odyssey

RePack

NEED FOR SPEED™ PAYBACK

4 сезон

9 сезон

Бесстыжие 9 сезон

Все сериалы

все сериалы на PB.wtf

RePack

FAR CRY 5
  

Реверс 666 / Exeter (Маркус Ниспел) [2015, ужасы, триллер, HDRip, Дубляж] / Чистый звук pb.wtf

Реверс 666 через торрент pb.wtf

Размер: 1.37 GB | Добавлен: 4 года 2 мес. назад | Торрент скачан:717 раз
Скачать  

03-11-2015 17:19 Реверс 666 Скачать торрент  


Реверс 666 / Exeter
««Чудный день для экзорцизма»»

ИНФОРМАЦИЯ:
Год выпуска:2015
Страна: США
Жанр: ужасы, триллер
Продолжительность: 01:31:28
Перевод: Дубляж - [Чистый звук]
Режиссер: Маркус Ниспел

В Ролях:


Стивен Лэнг (Father Conway), Кевин Чэпмен (Greer), Келли Блац (Patrick), Бриттани Каррен (Reign), Бретт Дир (Brad), Гейдж Голайтли (Amber), Ник Нак (Knowles), Ник Норделла (Drew), Майкл Ормсби (Rory), Malena Corso (Girl in Torture Chair), Мередит Прунти (Party Dancer), Эшли Трамонте (Rave Party Teen)

Описание:
Группа подростков случайно выпускает на волю злого духа, который начинает вселяться в них по одному...

  • Мировая премьера:27 февраля 2015

    ТЕХ.ДАННЫЕ:
    Качество: HDRip
    Формат: AVI
    Видео: XviD, 720x400 (16:9), 1938 kbps, 23,976 fps, 0,281 bpp
    Аудио: AC3 / 2.0 / 48 kHz / 192 kbps / 16 bit


    General
    Complete name : D:\Торенты\Revers.666.2015.D.HDRip.avi
    Format : AVI
    Format/Info : Audio Video Interleave
    File size : 1.37 GiB
    Duration : 1h 31mn
    Overall bit rate : 2 139 Kbps
    Writing application : VirtualDubMod 1.5.10.2 (build 2540/release)
    Writing library : VirtualDubMod build 2540/release

    Video
    ID : 0
    Format : MPEG-4 Visual
    Format profile : Advanced Simple@L5
    Format settings, BVOP : 2
    Format settings, QPel : No
    Format settings, GMC : No warppoints
    Format settings, Matrix : Default (MPEG)
    Codec ID : XVID
    Codec ID/Hint : XviD
    Duration : 1h 31mn
    Bit rate : 1 938 Kbps
    Width : 720 pixels
    Height : 400 pixels
    Display aspect ratio : 16:9
    Frame rate : 23.976 fps
    Color space : YUV
    Chroma subsampling : 4:2:0
    Bit depth : 8 bits
    Scan type : Progressive
    Compression mode : Lossy
    Bits/(Pixel*Frame) : 0.281
    Stream size : 1.24 GiB (91%)
    Writing library : XviD 1.2.1 (UTC 2008-12-04)

    Audio
    ID : 1
    Format : AC-3
    Format/Info : Audio Coding 3
    Mode extension : CM (complete main)
    Codec ID : 2000
    Duration : 1h 31mn
    Bit rate mode : Constant
    Bit rate : 192 Kbps
    Channel(s) : 2 channels
    Channel positions : Front: L R
    Sampling rate : 48.0 KHz
    Bit depth : 16 bits
    Compression mode : Lossy
    Stream size : 126 MiB (9%)
    Alignment : Split accross interleaves
    Interleave, duration : 42 ms (1.00 video frame)
    Interleave, preload duration : 500 ms
    Скриншоты:


    © Оформление by Ворон
    pb.wtf



  • Скачать Реверс 666 через торрент http://pic.kartinco.top/images/6/ordi9.jpg Скачать фильм Реверс 666 через торрент бесплантно в хорошем качестве Описание: Группа подростков случайно выпускает на волю злого духа, который начинает вселяться в них по одному... Мировая премьера:27 ... 7.7 10 26
    Торрент: Зарегистрирован [2015-11-03 17:19] · скачан: 717 раз
    Статус: T временная
    Размер: 1.37 GB
    Как cкачать? Как скачать Реверс 666 через торрент | qTorrent

    % Раздел Тема Автор DL S | L
    T Фильмы 2014 [DVDrip, WEB-DLRip, HDrip] [ 705 MB ] Реверс 666 / Exeter [2014 HDRip "Чистый звук"] coc900 Скачать
    1 | 0
    T Фильмы [HD 720p, 1080p] (Хороший звук DUB, MVO) [ 4.49 GB ] Реверс 666 / Exeter [2014 BDRip 720p ] / Чистый звук Ворон Скачать
    1 | 0

    28-11-2019 20:33  

    Отключить всю рекламу на сайте

    09-11-2015 05:33 Реверс 666 Скачать торрент  

    Спасибо, но это такой низкопробный бред.......pb.wtf



    17-11-2015 14:32 Реверс 666 Скачать торрент  

    Этот шлак даже 1 не заслужевает....pb.wtf



      Дорогой пользователь! Огромная просьба, поблагодарите релизера, оцените раздачу и оставьте свои комментарий, если Вы скачали Реверс 666 через торрент бесплатно! Внесите свою лепту в развитие PiratBit!
      Комментировать посты могут только пользователи прошедшие не сложную регистрацию
      Показать сообщения:    

      Реверс 666 через торрент
      Скачать бесплатно Реверс 666
      Реверс 666 скачать торрент
      Реверс 666 смотреть онлайн
      Cкачать фильм Реверс 666 бесплатно
      Реверс 666 скачать торрент в хорошем качестве
      Реверс 666 смотреть онлайн бесплатно в хорошем качестве


      Вы не можете начинать темы
      Вы не можете отвечать на сообщения
      Вы не можете редактировать свои сообщения
      Вы не можете удалять свои сообщения
      Вы не можете голосовать в опросах
      Вы не можете прикреплять файлы к сообщениям
      Вы можете скачивать файлы