2 сезон

iTunes

MVO

1

2 сезон

iTunes

iTunes

1 сезон

RePack

30

Ultimate

ВАЖНО

ИГРА 18+

pack

RePack

MK11
pack

Легкие деньги

RePack

jed

RePack

fifa19

RePack

RDR2

RePack

NEED FOR SPEED™ PAYBACK

4 сезон

9 сезон

Бесстыжие 9 сезон

Все сериалы

все сериалы на PB.wtf

RePack

FAR CRY 5

Anonymous, доброе утро, мы не успеваем собрать деньги на оплату серверов за декабрь и январь, помогите нам пожалуйста в это трудное время. В качестве благодарности мы отключим Вам всю рекламу на сайте (укажите свой ник в строку Ваше имя)!

×
  
Magnet ссылка

Абсолютный ноль / Absolute Zero (Дэвид Дуган) [2008 г., документальный, SATRip, Профессиональный (одноголосый)] pb.wtf

Абсолютный ноль через торрент pb.wtf

Размер: 1.4 GB | Добавлен: 5 лет 2 мес. назад | Торрент скачан:34 раза
Скачать  

04-11-2015 08:51 Абсолютный ноль Скачать торрент  

Абсолютный ноль / Absolute Zero




Год выпуска: 2008
Страна: Великобритания
Жанр: документальный
Продолжительность: 2 x ~ 00:59:00
Перевод: Профессиональный (одноголосый)
Субтитры: отсутствуют

Режиссер: Дэвид Дуган
Продюссер: Дэвид Дуган, Мередит Берч

Премьера в мире: 31 мая 2008

IMDB 7.30 (50)





В ролях: Иэн Эгнью, Нил Росс, Маринус Смит




Описание: Программа исследует труды философов, ученых и инженеров, которые на протяжении более четырех столетий стремились постичь природу холода, пытались установить предельно-низкую температуру и разработали «низкотемпературные технологии», которые навсегда изменили нашу жизнь. Погоня за «абсолютным нулем» стала для физиков камнем преткновения. На сегодняшний день им удалось достигнуть температуры близкой к «абсолютному нулю», при которой исчезает электрическое сопротивление, позволяя электрическому току перемещаться свободно сквозь кристаллическую решетку, а жидкость приобретает свойство сверхтекучести.




Качество: SATRip
Формат: AVI
Видео кодек: XviD
Аудио кодек: MP3
Видео: XviD, 704x400 (16:9), 25.000 fps, 1 595 Kbps (0.227 bit/pixel)
Аудио#1: MP3, 48.0 KHz, 2 ch, 96.0 Kbps, CBR
скриншот   скриншот   скриншот   скриншот  

Общее
Полное имя : D:\download\Абсолютный ноль\Абсолютный ноль. 1 серия.avi
Формат : AVI
Формат/Информация : Audio Video Interleave
Размер файла : 718 Мбайт
Продолжительность : 59 м.
Общий поток : 1701 Кбит/сек
Библиотека кодирования : VirtualDub build 33769/release

Видео
Идентификатор : 0
Формат : MPEG-4 Visual
Профиль формата : Advanced Simple@L5
Параметр BVOP формата : 2
Параметр QPel формата : Нет
Параметр GMC формата : Без точки перехода
Параметр матрицы формата : Default (MPEG)
Режим смешивания : Сжатый битовый поток
Идентификатор кодека : XVID
Идентификатор кодека/Подсказка : XviD
Продолжительность : 59 м.
Битрейт : 1595 Кбит/сек
Ширина : 704 пикселя
Высота : 400 пикселей
Соотношение сторон : 16:9
Частота кадров : 25,000 кадров/сек
Цветовое пространство : YUV
Субдискретизация насыщенности : 4:2:0
Битовая глубина : 8 бит
Тип развёртки : Прогрессивная
Метод сжатия : С потерями
Бит/(Пиксели*Кадры) : 0.227
Размер потока : 673 Мбайт (94%)
Библиотека кодирования : XviD 1.2.1 (UTC 2008-12-04)

Аудио
Идентификатор : 1
Формат : MPEG Audio
Версия формата : Version 1
Профиль формата : Layer 3
Режим : Joint stereo
Расширение режима : Intensity Stereo + MS Stereo
Идентификатор кодека : 55
Идентификатор кодека/Подсказка : MP3
Продолжительность : 59 м.
Вид битрейта : Постоянный
Битрейт : 96,0 Кбит/сек
Каналы : 2 канала
Частота : 48,0 КГц
Метод сжатия : С потерями
Размер потока : 40,5 Мбайт (6%)
Выравнивание : Разделение по промежуткам
Продолжительность промежутка : 40 мс. (1,00 видеокадр)
Время предзагрузки промежутка : 500 мс.

Общее
Полное имя : D:\download\Абсолютный ноль\Абсолютный ноль. 2 серия.avi
Формат : AVI
Формат/Информация : Audio Video Interleave
Размер файла : 719 Мбайт
Продолжительность : 59 м.
Общий поток : 1701 Кбит/сек
Библиотека кодирования : VirtualDub build 33769/release

Видео
Идентификатор : 0
Формат : MPEG-4 Visual
Профиль формата : Advanced Simple@L5
Параметр BVOP формата : 2
Параметр QPel формата : Нет
Параметр GMC формата : Без точки перехода
Параметр матрицы формата : Default (MPEG)
Режим смешивания : Сжатый битовый поток
Идентификатор кодека : XVID
Идентификатор кодека/Подсказка : XviD
Продолжительность : 59 м.
Битрейт : 1595 Кбит/сек
Ширина : 704 пикселя
Высота : 400 пикселей
Соотношение сторон : 16:9
Частота кадров : 25,000 кадров/сек
Цветовое пространство : YUV
Субдискретизация насыщенности : 4:2:0
Битовая глубина : 8 бит
Тип развёртки : Прогрессивная
Метод сжатия : С потерями
Бит/(Пиксели*Кадры) : 0.227
Размер потока : 674 Мбайт (94%)
Библиотека кодирования : XviD 1.2.1 (UTC 2008-12-04)

Аудио
Идентификатор : 1
Формат : MPEG Audio
Версия формата : Version 1
Профиль формата : Layer 3
Режим : Joint stereo
Расширение режима : Intensity Stereo + MS Stereo
Идентификатор кодека : 55
Идентификатор кодека/Подсказка : MP3
Продолжительность : 59 м.
Вид битрейта : Постоянный
Битрейт : 96,0 Кбит/сек
Каналы : 2 канала
Частота : 48,0 КГц
Метод сжатия : С потерями
Размер потока : 40,6 Мбайт (6%)
Выравнивание : Разделение по промежуткам
Продолжительность промежутка : 40 мс. (1,00 видеокадр)
Время предзагрузки промежутка : 500 мс.

pb.wtf



Скачать Абсолютный ноль через торрент http://pic.kartinco.top/images/11/oj6mp.jpg Скачать фильм Абсолютный ноль через торрент бесплантно в хорошем качестве Описание: Программа исследует труды философов, ученых и инженеров, которые на протяжении более четырех столетий стремились постичь природу ... 10 10 3
Торрент: Зарегистрирован [2015-11-04 08:51] · скачан: 34 раз
Статус: √ проверено
Размер: 1.4 GB
Как cкачать? Как скачать Абсолютный ноль через торрент | UTorrent

% Раздел Тема Автор DL S | L
Фильмы (DVD фильмы) [ 4.03 GB ] Абсолютный ноль / Absolute Zero [2005 ... DVD5 лицензия] маклай Скачать
1 | 0

28-11-2019 20:33  

Отключить всю рекламу на сайте

    Дорогой пользователь! Огромная просьба, поблагодарите релизера, оцените раздачу и оставьте свои комментарий, если Вы скачали Абсолютный ноль через торрент бесплатно! Внесите свою лепту в развитие PiratBit!
    Комментировать посты могут только пользователи прошедшие не сложную регистрацию
    Показать сообщения:    

    Абсолютный ноль через торрент
    Скачать бесплатно Абсолютный ноль
    Абсолютный ноль скачать торрент
    Абсолютный ноль смотреть онлайн
    Cкачать фильм Абсолютный ноль бесплатно
    Абсолютный ноль скачать торрент в хорошем качестве
    Абсолютный ноль смотреть онлайн бесплатно в хорошем качестве


    Вы не можете начинать темы
    Вы не можете отвечать на сообщения
    Вы не можете редактировать свои сообщения
    Вы не можете удалять свои сообщения
    Вы не можете голосовать в опросах
    Вы не можете прикреплять файлы к сообщениям
    Вы можете скачивать файлы