1 сезон

1 сезон

iTunes

1

КиноПоиск HD

Кинопоиск HD

iTunes

13

1 сезон

RePack

30

Новинка

ВАЖНО

ИГРА 18+

pack

RePack

MK11
pack

Легкие деньги

RePack

jed

RePack

fifa19

RePack

RDR2

RePack

NEED FOR SPEED™ PAYBACK

4 сезон

9 сезон

Бесстыжие 9 сезон

Все сериалы

все сериалы на PB.wtf

RePack

FAR CRY 5
  
Magnet ссылка

Глухой пролет / It's All Gone Pete Tong (Майкл Даус) [2004 г., Драмы, Комедии, Мюзиклы, BDRip, Профессиональный (многоголосый)] pb.wtf

Глухой пролет через торрент pb.wtf

Размер: 1.46 GB | Добавлен: 5 лет 5 мес. назад | Торрент скачан:31 раз
Скачать  

04-11-2015 12:08 Глухой пролет Скачать торрент  

Глухой пролет / It's All Gone Pete TongГод выпуска: 2004
Страна: Канада, Великобритания
Жанр: Драмы, Комедии, Мюзиклы
Продолжительность: 01:32:21
Перевод: Профессиональный (многоголосый, закадровый)
Тип релиза: Пиратка
Субтитры: нет

Режиссер: Майкл Даус
Продюссер: Аллан Нибло, Джеймс Ричардсон, Тони Арман-Джонс,
Сценарий: Майкл Даус

Бюджет: $2 000 000
Премьера в мире: 12 сентября 2004,

лицам до 17 лет обязательно присутствие взрослого
7.4


В ролях: Пол Кэй, Беатриз Батарда, Кейт Магован, Майк Уилмот, Нил Мэскелл, Моника Майя, Пит Тонг, Рон Ллой Хью Эллистон, Дэн Антопольский, Тим Плестер

Описание: Главный герой Фрэнки Уайлд карабкается по карьерной лестнице ди-джея, живет сумасшедшей жизнью со всеми вытекающими последствиями… Вдруг он обнаруживает, что теряет слух! Однако он уже успел привыкнуть к славе и лести и решает бороться до конца, чтобы выяснить, слышит он музыку, которую сам играет или нет…

Качество: BDRip
Формат: AVI
Видео кодек: XviD
Аудио кодек: AC3
Видео: 720х400, 1864 Кбит/сек , 23,976 кадра/сек
Аудио: AC-3 / 48,0 КГц / 384 Кбит/сек / 6 каналов
скриншот  скриншот  скриншот  



Общее
Полное имя :Gluhoy.Prolet.2004.RUS.BDRip.XviD.AC3.-HQ-ViDEO.avi
Формат : AVI
Формат/Информация : Audio Video Interleave
Размер файла : 1,46 Гбайт
Продолжительность : 1 ч. 32 м.
Общий поток : 2257 Кбит/сек
Название фильма : Глухой пролёт / It's All Gone Pete Tong (2004)
Программа кодирования : VirtualDubMod 1.5.10.3 | www.virtualdub-fr.org || (build 2550/release)

Видео
Идентификатор : 0
Формат : MPEG-4 Visual
Профиль формата : Advanced Simple@L5
Параметр BVOP формата : 1
Параметр QPel формата : Нет
Параметр GMC формата : Без точки перехода
Параметр матрицы формата : Default (MPEG)
Идентификатор кодека : XVID
Идентификатор кодека/Подсказка : XviD
Продолжительность : 1 ч. 32 м.
Битрейт : 1864 Кбит/сек
Ширина : 720 пикселей
Высота : 400 пикселей
Соотношение сторон : 16:9
Соотношение сторон в оригинале : 16:9
Частота кадров : 23,976 кадра/сек
Цветовое пространство : YUV
Субдискретизация насыщенности : 4:2:0
Битовая глубина : 8 бит
Тип развёртки : Прогрессивная
Метод сжатия : С потерями
Бит/(Пиксели*Кадры) : 0.270
Размер потока : 1,20 Гбайт (83%)
Библиотека кодирования : XviD 1.2.1 (UTC 2008-12-04)

Аудио
Идентификатор : 1
Формат : AC-3
Формат/Информация : Audio Coding 3
Расширение режима : CM (complete main)
Параметр Endianness формата : Big
Идентификатор кодека : 2000
Продолжительность : 1 ч. 32 м.
Вид битрейта : Постоянный
Битрейт : 384 Кбит/сек
Каналы : 6 каналов
Расположение каналов : Front: L C R, Side: L R, LFE
Частота : 48,0 КГц
Метод сжатия : С потерями
Размер потока : 254 Мбайт (17%)
Выравнивание : Разделение по промежуткам
Продолжительность промежутка : 42 мс. (1,00 видеокадр)
Время предзагрузки промежутка : 500 мс.
pb.wtf



Скачать Глухой пролет через торрент https://pic.kartinco.top/images/11/l9nas.jpg Скачать фильм Глухой пролет через торрент бесплантно в хорошем качестве Описание: Главный герой Фрэнки Уайлд карабкается по карьерной лестнице ди-джея, живет сумасшедшей жизнью со всеми вытекающими ... 10 10 2
Торрент: Зарегистрирован [2015-11-04 12:08] · скачан: 31 раз
Статус: √ проверено
Размер: 1.46 GB
Как cкачать? Как скачать Глухой пролет через торрент | UTorrent

28-11-2019 20:33  

Отключить всю рекламу на сайте

04-11-2015 12:29 Глухой пролет Скачать торрент  

Подправил оформлениеpb.wtf



    Дорогой пользователь! Огромная просьба, поблагодарите релизера, оцените раздачу и оставьте свои комментарий, если Вы скачали Глухой пролет через торрент бесплатно! Внесите свою лепту в развитие PiratBit!
    Комментировать посты могут только пользователи прошедшие не сложную регистрацию
    Показать сообщения:    

    Глухой пролет через торрент
    Скачать бесплатно Глухой пролет
    Глухой пролет скачать торрент
    Глухой пролет смотреть онлайн
    Cкачать фильм Глухой пролет бесплатно
    Глухой пролет скачать торрент в хорошем качестве
    Глухой пролет смотреть онлайн бесплатно в хорошем качестве


    Вы не можете начинать темы
    Вы не можете отвечать на сообщения
    Вы не можете редактировать свои сообщения
    Вы не можете удалять свои сообщения
    Вы не можете голосовать в опросах
    Вы не можете прикреплять файлы к сообщениям
    Вы можете скачивать файлы