Ссылка на приватное зеркало всего за 1$. Внимание количество ограничено!!!

OK

1+1

iTunes

мы

OK

1

WEB-DLRip

Джокер

Пифагор

Ведьмак / The Witcher сериал

iTunes

ПШазам

ОК

Оно 2

iTunes

30
pack

Вам бонус

ВАЖНО

!!Акция!!

Alien_RageХит недели

RePack

Resident Evil 21

ИГРА 18+

pack

RePack

jed

RePack

fifa19

RePack

Assassins Creed: Odyssey

RePack

NEED FOR SPEED™ PAYBACK

4 сезон

9 сезон

Бесстыжие 9 сезон

Все сериалы

все сериалы на PB.wtf

RePack

FAR CRY 5
  

Рики и Флэш / Ricki and the Flash (Джонатан Демме) [2015, драма, комедия, музыка, WEB-DLRip, Дубляж] iTunes pb.wtf

Рики и Флэш через торрент pb.wtf

Размер: 1.46 GB | Добавлен: 4 года 2 мес. назад | Торрент скачан:325 раз
Скачать  

04-11-2015 21:56 Рики и Флэш Скачать торрент  

Рики и Флэш / Ricki and the Flash«Когда мама младше дочки»

  • Год выхода: 2015
  • Жанр: драма, комедия, музыка

  • Страна: США
  • Продолжительность: 01:41:26
  • Перевод: Дубляж - [Лицензия / iTunes]
  • Режиссер: Джонатан Демме
  • В ролях:

    Мэрил Стрип (Ricki), Мэми Гаммер (Julie), Кевин Клайн (Pete), Одра МакДональд (Maureen), Себастьян Стэн (Josh), Рик Спрингфилд (Greg), Рик Росас (Buster), Джо Витале (Joe), Берни Уоррелл (Billy), Бен Платт (Daniel), Питер С. Демме (Walt), Джим Рош (Provocative Dancer #1)


  • История экстравагантной творческой личности, которая неожиданно возвращается в дом к своему бывшему мужу спустя много лет жизни вдали от него и детей.

  • Качество: WEB-DLRip
  • Формат: AVI
  • Видео кодек: XviD
  • Аудио кодек: AC3
  • Видео: XviD, 720x304 (2.35:1), 1588 kbps, 23,976 fps, 0,303 bpp
  • Аудио: AC3 / 5.1 / 48 kHz / 384 kbps / 16 bit

    Код:

    General
    Complete name                            : H:\P1k1.i.Flsh.2015.D.WEB-DLRip.avi
    Format                                   : AVI
    Format/Info                              : Audio Video Interleave
    File size                                : 1.46 GiB
    Duration                                 : 1h 41mn
    Overall bit rate                         : 2 063 Kbps
    Writing application                      : VirtualDubMod 1.5.10.3 | www.virtualdub-fr.org || (build 2550/release)
    Writing library                          : VirtualDubMod build 2550/release

    Video
    ID                                       : 0
    Format                                   : MPEG-4 Visual
    Format profile                           : Advanced Simple@L5
    Format settings, BVOP                    : 2
    Format settings, QPel                    : No
    Format settings, GMC                     : No warppoints
    Format settings, Matrix                  : Default (MPEG)
    Codec ID                                 : XVID
    Codec ID/Hint                            : XviD
    Duration                                 : 1h 41mn
    Bit rate                                 : 1 589 Kbps
    Width                                    : 720 pixels
    Height                                   : 304 pixels
    Display aspect ratio                     : 2.35:1
    Frame rate                               : 23.976 fps
    Color space                              : YUV
    Chroma subsampling                       : 4:2:0
    Bit depth                                : 8 bits
    Scan type                                : Progressive
    Compression mode                         : Lossy
    Bits/(Pixel*Frame)                       : 0.303
    Stream size                              : 1.13 GiB (77%)
    Writing library                          : XviD 1.2.1 (UTC 2008-12-04)

    Audio
    ID                                       : 1
    Format                                   : AC-3
    Format/Info                              : Audio Coding 3
    Mode extension                           : CM (complete main)
    Codec ID                                 : 2000
    Duration                                 : 1h 41mn
    Bit rate mode                            : Constant
    Bit rate                                 : 384 Kbps
    Channel(s)                               : 6 channels
    Channel positions                        : Front: L C R, Side: L R, LFE
    Sampling rate                            : 48.0 KHz
    Bit depth                                : 16 bits
    Compression mode                         : Lossy
    Stream size                              : 279 MiB (19%)
    Alignment                                : Split accross interleaves

    Скриншоты:


    © Оформление by -Lexx- pb.wtf



  • Скачать Рики и Флэш через торрент http://pic.kartinco.top/images/6/stazu.jpg Скачать фильм Рики и Флэш через торрент бесплантно в хорошем качестве qw.png История экстравагантной творческой личности, которая неожиданно возвращается в дом к своему бывшему мужу спустя много лет жизни ... 8.6 10 14
    Info! Золотая раздача, скачанное не засчитывается.
    Торрент: Зарегистрирован [2015-11-04 21:56] · скачан: 325 раз
    Статус: √ проверено
    Размер: 1.46 GB
    Как cкачать? Как скачать Рики и Флэш через торрент | qTorrent

    % Раздел Тема Автор DL S | L
    Фильмы 2015 [DVDrip, WEB-DLRip, HDrip] [ 1.37 GB ] Рики и Флэш / Ricki and the Flash [2015 музыка HDRip MihailHD Скачать
    1 | 0
    Фильмы (WEB-DL 720p, 1080p) [ 3.44 GB ] Рики и Флэш / Ricki and the Flash [2015 музыка WEB-DL 1080p] ] -Lexx- Скачать
    1 | 0

    28-11-2019 20:33  

    Отключить всю рекламу на сайте

    07-12-2015 07:33 Рики и Флэш Скачать торрент  

    надо посмотреть!!!pb.wtf



      Дорогой пользователь! Огромная просьба, поблагодарите релизера, оцените раздачу и оставьте свои комментарий, если Вы скачали Рики и Флэш через торрент бесплатно! Внесите свою лепту в развитие PiratBit!
      Комментировать посты могут только пользователи прошедшие не сложную регистрацию
      Показать сообщения:    

      Рики и Флэш через торрент
      Скачать бесплатно Рики и Флэш
      Рики и Флэш скачать торрент
      Рики и Флэш смотреть онлайн
      Cкачать фильм Рики и Флэш бесплатно
      Рики и Флэш скачать торрент в хорошем качестве
      Рики и Флэш смотреть онлайн бесплатно в хорошем качестве


      Вы не можете начинать темы
      Вы не можете отвечать на сообщения
      Вы не можете редактировать свои сообщения
      Вы не можете удалять свои сообщения
      Вы не можете голосовать в опросах
      Вы не можете прикреплять файлы к сообщениям
      Вы можете скачивать файлы