Ссылка на приватное зеркало всего за 1$. Внимание количество ограничено!!!

iTunes

iTunes

iTunes

1

iTunes

iTunes

iTunes

iTunes

iTunes

30
pack

$ от Little Big

ВАЖНО

!!Акция!!

Alien_RageХит недели

RePack

Resident Evil 21

ИГРА 18+

pack

RePack

jed

!!Акция!!

Alien_Rage

RePack

fifa19

RePack

Assassins Creed: Odyssey

RePack

NEED FOR SPEED™ PAYBACK

4 сезон

9 сезон

Бесстыжие 9 сезон

Все сериалы

все сериалы на PB.wtf

RePack

FAR CRY 5
  

Рики и Флэш / Ricki and the Flash (Джонатан Демме) [2015, драма, комедия, музыка, WEB-DL 1080p] Дубляж] iTunes pb.wtf

Рики и Флэш через торрент pb.wtf

Размер: 3.44 GB | Добавлен: 4 года 8 мес. назад | Торрент скачан:93 раза
Скачать  

05-11-2015 05:07 Рики и Флэш Скачать торрент  

Рики и Флэш / Ricki and the Flash«Когда мама младше дочки»

  • Год выхода: 2015
  • Жанр: драма, комедия, музыка

  • Страна: США
  • Продолжительность: 01:41:26
  • Перевод: Дубляж - [Лицензия / iTunes]
  • Режиссер: Джонатан Демме
  • В ролях:

    Мэрил Стрип (Ricki), Мэми Гаммер (Julie), Кевин Клайн (Pete), Одра МакДональд (Maureen), Себастьян Стэн (Josh), Рик Спрингфилд (Greg), Рик Росас (Buster), Джо Витале (Joe), Берни Уоррелл (Billy), Бен Платт (Daniel), Питер С. Демме (Walt), Джим Рош (Provocative Dancer #1)


  • История экстравагантной творческой личности, которая неожиданно возвращается в дом к своему бывшему мужу спустя много лет жизни вдали от него и детей.

  • Качество: WEB-DL 1080p
  • Формат: MKV
  • Видео кодек: AVC
  • Аудио кодек: AC3
  • Видео: AVC, 1916x800 (2.40:1), 4375 kbps, 23,976 fps, 0,119 bpp
  • Аудио: русский / AC3 / 5.1 / 48 kHz / 384 kbps / 16 bit ||
  • Навигация по главам: есть

    Код:

    General
    Unique ID                                : 249069344231270080294839141725903497819 (0xBB6102C5A63AE516B1C827B91D87AA5B)
    Complete name                            : H:\P1k1.i.FLeW.2O15.D.WEB-DL.1080p.mkv
    Format                                   : Matroska
    Format version                           : Version 4 / Version 2
    File size                                : 3.44 GiB
    Duration                                 : 1h 41mn
    Overall bit rate                         : 4 856 Kbps
    Encoded date                             : UTC 2015-11-04 18:38:16
    Writing application                      : mkvmerge v8.3.0 ('Over the Horizon') 64bit
    Writing library                          : libebml v1.3.1 + libmatroska v1.4.2

    Video
    ID                                       : 1
    Format                                   : AVC
    Format/Info                              : Advanced Video Codec
    Format profile                           : High@L4.0
    Format settings, CABAC                   : Yes
    Format settings, ReFrames                : 5 frames
    Codec ID                                 : V_MPEG4/ISO/AVC
    Duration                                 : 1h 41mn
    Bit rate                                 : 4 376 Kbps
    Width                                    : 1 916 pixels
    Height                                   : 800 pixels
    Display aspect ratio                     : 2.40:1
    Frame rate                               : 23.976 fps
    Color space                              : YUV
    Chroma subsampling                       : 4:2:0
    Bit depth                                : 8 bits
    Scan type                                : Progressive
    Bits/(Pixel*Frame)                       : 0.119
    Stream size                              : 3.10 GiB (90%)
    Language                                 : English
    Default                                  : Yes
    Forced                                   : No
    Color primaries                          : BT.709-5, BT.1361, IEC 61966-2-4, SMPTE RP177
    Transfer characteristics                 : BT.709-5, BT.1361
    Matrix coefficients                      : BT.709-5, BT.1361, IEC 61966-2-4 709, SMPTE RP177

    Audio
    ID                                       : 2
    Format                                   : AC-3
    Format/Info                              : Audio Coding 3
    Mode extension                           : CM (complete main)
    Codec ID                                 : A_AC3
    Duration                                 : 1h 41mn
    Bit rate mode                            : Constant
    Bit rate                                 : 384 Kbps
    Channel(s)                               : 6 channels
    Channel positions                        : Front: L C R, Side: L R, LFE
    Sampling rate                            : 48.0 KHz
    Bit depth                                : 16 bits
    Compression mode                         : Lossy
    Stream size                              : 279 MiB (8%)
    Language                                 : Russian
    Default                                  : Yes
    Forced                                   : No

    Menu
    00:00:00.000                             : en:1
    00:07:26.000                             : en:2
    00:12:47.000                             : en:3
    00:19:02.000                             : en:4
    00:24:36.000                             : en:5
    00:28:05.000                             : en:6
    00:34:17.000                             : en:7
    00:41:55.000                             : en:8
    00:45:32.000                             : en:9
    00:49:32.000                             : en:10
    00:56:01.000                             : en:11
    01:03:23.000                             : en:12
    01:07:58.000                             : en:13
    01:17:59.000                             : en:14
    01:22:56.000                             : en:15
    01:30:12.000                             : en:16

    Скриншоты:


    © Оформление by -Lexx- pb.wtf



  • Скачать Рики и Флэш через торрент http://pic.kartinco.top/images/6/stazu.jpg Скачать фильм Рики и Флэш через торрент бесплантно в хорошем качестве qw.png История экстравагантной творческой личности, которая неожиданно возвращается в дом к своему бывшему мужу спустя много лет жизни ... 9.3 10 3
    Торрент: Зарегистрирован [2015-11-05 05:07] · скачан: 93 раз
    Статус: √ проверено
    Размер: 3.44 GB
    Как cкачать? Как скачать Рики и Флэш через торрент | qTorrent

    % Раздел Тема Автор DL S | L
    Фильмы 2015 [DVDrip, WEB-DLRip, HDrip] [ 1.46 GB ] Рики и Флэш / Ricki and the Flash [2015 музыка WEB-DLRip ] -Lexx- Скачать
    1 | 0
    Фильмы 2015 [DVDrip, WEB-DLRip, HDrip] [ 1.37 GB ] Рики и Флэш / Ricki and the Flash [2015 музыка HDRip MihailHD Скачать
    1 | 0

    28-11-2019 20:33  

    Отключить всю рекламу на сайте

      Дорогой пользователь! Огромная просьба, поблагодарите релизера, оцените раздачу и оставьте свои комментарий, если Вы скачали Рики и Флэш через торрент бесплатно! Внесите свою лепту в развитие PiratBit!
      Комментировать посты могут только пользователи прошедшие не сложную регистрацию
      Показать сообщения:    

      Рики и Флэш через торрент
      Скачать бесплатно Рики и Флэш
      Рики и Флэш скачать торрент
      Рики и Флэш смотреть онлайн
      Cкачать фильм Рики и Флэш бесплатно
      Рики и Флэш скачать торрент в хорошем качестве
      Рики и Флэш смотреть онлайн бесплатно в хорошем качестве


      Вы не можете начинать темы
      Вы не можете отвечать на сообщения
      Вы не можете редактировать свои сообщения
      Вы не можете удалять свои сообщения
      Вы не можете голосовать в опросах
      Вы не можете прикреплять файлы к сообщениям
      Вы можете скачивать файлы