Ссылка на приватное зеркало нашего сайта всего за 1$. Внимание количество ограничено!!!

2 сезон

iTunes

1 сезон

1

iTunes

iTunes

iTunes

1 сезон

RePack

30

ИГРА 18+

pack

ВАЖНО

!!Акция!!

Alien_RageХит недели

RePack

MK11
pack

Забери бонус

RePack

jed

!!Акция!!

Alien_Rage

RePack

fifa19

RePack

Assassins Creed: Odyssey

RePack

NEED FOR SPEED™ PAYBACK

4 сезон

9 сезон

Бесстыжие 9 сезон

Все сериалы

все сериалы на PB.wtf

RePack

FAR CRY 5
  

Выхода нет / No Exit (Дэмиан Ли ) [1995, боевик, триллер, DVDRip, Авторский (одноголосый) Андрей Гаврилов pb.wtf

Выхода нет через торрент pb.wtf

Размер: 1.46 GB | Добавлен: 4 года 11 мес. назад | Торрент скачан:0 раз
Скачать  

05-11-2015 08:47 Выхода нет Скачать торрент  

Выхода нет / No Exit
Год выпуска: 1995
Страна: Канада
Жанр: боевик, триллер

Продолжительность: 01:33:12
Перевод: Авторский (одноголосый) Андрей Гаврилов
Режиссер: Дэмиан Ли
В ролях:
Джефф Уинкотт (Professor John Stoneman), Свен-Оле Торсен (Darcona), Филлип Джарретт (Doc), Ричард Фицпатрик (Armstrong), Гайлейн Сент-Ондж (Carmel Stoneman), Джозеф Ди Мамбро (Jason Samuels), Дуглас О’Киффи (Tayback), Керри Харрис (Mr. Kerry), Деннис О’Коннор (Doctor), Дэвид Фрайзер (Dave), Джейсон Вейнберг (Hank), Дэвид Кэмпбелл (Henry)

Описание:
Далеко за Полярным Кругом основан телеканал, по которому идет единственная программа - «Выхода нет». Рукопашные схватки и смерть в прямом эфире. Профессор университета Джон Стоунмен похищен владельцем телеканала. Нет шанса бежать, нет шанса уцелеть. Для Джона Стоунмена выхода нет...
Рейтинг:

MPAA: R - Лицам до 17 лет обязательно присутствие взрослого
Качество: DVDRip
Формат: AVI
Видео: XviD, 624x480 (1.300), 2045 kbps, 25 fps, 0,273 bpp
Аудио: AC3 / 2.0 / 48 kHz / 192 kbps / 16 bit

Код:

General
Complete name                            : D:\download\Выхода нет.avi
Format                                   : AVI
Format/Info                              : Audio Video Interleave
File size                                : 1.46 GiB
Duration                                 : 1h 33mn
Overall bit rate                         : 2 248 Kbps
Movie name                               : Выхода нет - No Exit [by ale_x2008]
Director                                 : by ale_x2008
Writing application                      : VirtualDubMod 1.5.10.3 (build 2550/release)

Video
ID                                       : 0
Format                                   : MPEG-4 Visual
Format profile                           : Advanced Simple@L5
Format settings, BVOP                    : 1
Format settings, QPel                    : No
Format settings, GMC                     : No warppoints
Format settings, Matrix                  : Default (MPEG)
Codec ID                                 : XVID
Codec ID/Hint                            : XviD
Duration                                 : 1h 33mn
Bit rate                                 : 2 046 Kbps
Width                                    : 624 pixels
Height                                   : 480 pixels
Display aspect ratio                     : 1.300
Frame rate                               : 25.000 fps
Color space                              : YUV
Chroma subsampling                       : 4:2:0
Bit depth                                : 8 bits
Scan type                                : Progressive
Compression mode                         : Lossy
Bits/(Pixel*Frame)                       : 0.273
Stream size                              : 1.33 GiB (91%)
Writing library                          : XviD 1.2.1 (UTC 2008-12-04)

Audio
ID                                       : 1
Format                                   : AC-3
Format/Info                              : Audio Coding 3
Mode extension                           : CM (complete main)
Codec ID                                 : 2000
Duration                                 : 1h 33mn
Bit rate mode                            : Constant
Bit rate                                 : 192 Kbps
Channel(s)                               : 2 channels
Channel positions                        : Front: L R
Sampling rate                            : 48.0 KHz
Bit depth                                : 16 bits
Compression mode                         : Lossy
Stream size                              : 128 MiB (9%)
Alignment                                : Split accross interleaves
Interleave, duration                     : 40 ms (1.00 video frame)
Interleave, preload duration             : 500 ms

pb.wtf



Скачать Выхода нет через торрент http://pic1.kartinco.top/images/10/px4hq.jpg Скачать фильм Выхода нет через торрент бесплантно в хорошем качестве Описание: Далеко за Полярным Кругом основан телеканал, по которому идет единственная программа - «Выхода нет». Рукопашные схватки и смерть ... 10 10 1
Торрент: Зарегистрирован [2015-11-05 08:47] · скачан: 0 раз
Статус: √ проверено
Размер: 1.46 GB
Как cкачать? Как скачать Выхода нет через торрент | qTorrent

28-11-2019 20:33  

Отключить всю рекламу на сайте

    Дорогой пользователь! Огромная просьба, поблагодарите релизера, оцените раздачу и оставьте свои комментарий, если Вы скачали Выхода нет через торрент бесплатно! Внесите свою лепту в развитие PiratBit!
    Комментировать посты могут только пользователи прошедшие не сложную регистрацию
    Показать сообщения:    

    Выхода нет через торрент
    Скачать бесплатно Выхода нет
    Выхода нет скачать торрент
    Выхода нет смотреть онлайн
    Cкачать фильм Выхода нет бесплатно
    Выхода нет скачать торрент в хорошем качестве
    Выхода нет смотреть онлайн бесплатно в хорошем качестве


    Вы не можете начинать темы
    Вы не можете отвечать на сообщения
    Вы не можете редактировать свои сообщения
    Вы не можете удалять свои сообщения
    Вы не можете голосовать в опросах
    Вы не можете прикреплять файлы к сообщениям
    Вы можете скачивать файлы