Ссылка на приватное зеркало нашего сайта всего за 1$. Внимание количество ограничено!!!

2 сезон

iTunes

1 сезон

1

iTunes

iTunes

iTunes

1 сезон

RePack

30

ИГРА 18+

pack

ВАЖНО

!!Акция!!

Alien_RageХит недели

RePack

MK11
pack

Забери бонус

RePack

jed

!!Акция!!

Alien_Rage

RePack

fifa19

RePack

Assassins Creed: Odyssey

RePack

NEED FOR SPEED™ PAYBACK

4 сезон

9 сезон

Бесстыжие 9 сезон

Все сериалы

все сериалы на PB.wtf

RePack

FAR CRY 5
  

Девушка без комплексов / Trainwreck (Джудд Апатоу) [2015 г., мелодрама, комедия, BDRip 720p] Дубляж [iTunes] pb.wtf

Девушка без комплексов через торрент pb.wtf

Размер: 5.59 GB | Добавлен: 4 года 11 мес. назад | Торрент скачан:692 раза
Скачать  

05-11-2015 18:31 Девушка без комплексов Скачать торрент  


Девушка без комплексов / Trainwreck
Год выпуска: 2015
Страна: США
Жанр: мелодрама, комедия
Продолжительность: 02:04:45
Перевод: Дублированный [Лицензия / iTunes]
Субтитры: нет
Режиссер: Джудд Апатоу

В ролях:
Эми Бет Шумер, Билл Хейдер, Бри Ларсон, Колин Куинн, Джон Сина, Ванесса Байер, Майк Бирбиглия, Эзра Миллер, Дэйв Аттелль, Тильда Суинтон

Описание:

У симпатичной девушки Эми никогда не было серьезных отношений. Она придерживается свободных взглядов и обычно не ходит дважды с одним парнем на свидание. Будучи сотрудницей крупного мужского издания, она получает задание от шефа написать статью о спортивном враче Ароне. Эми и не рассчитывала, что деловая встреча с доктором изменит ее жизнь.
Качество: BDRip 720p
Формат: MKV
Видео кодек: AVC
Аудио кодек: AC3
Видео:MPEG-4 AVC, 4394 Кбит/сек, 1280x534,23,976 кадра/сек

Аудио 1: Russian:AC3, 48,0 КГц, 384 Кбит/сек, 6 каналов,16 бит


Аудио 2: English:DTS,48,0 КГц,1509 Кбит/сек,6 каналов,24 бит
Общее
Уникальный идентификатор : 173648039850444852997908380879867825925 (0x82A3655E801B88A088477BFA123B4F05)
Полное имя : E:\DeBuWka.be3.K0mpLeKC0B.2O15.D.BDRip.72Op.mkv
Формат : Matroska
Версия формата : Version 4 / Version 2
Размер файла : 5,59 Гбайт
Продолжительность : 2 ч. 4 м.
Общий поток : 6415 Кбит/сек
Дата кодирования : UTC 2015-11-04 18:09:07
Программа кодирования : mkvmerge v8.3.0 ('Over the Horizon') 64bit
Библиотека кодирования : libebml v1.3.1 + libmatroska v1.4.2
DURATION : 02:04:38.912000000
NUMBER_OF_FRAMES : 233716
NUMBER_OF_BYTES : 358987776
_STATISTICS_WRITING_APP : mkvmerge v8.3.0 ('Over the Horizon') 64bit
_STATISTICS_WRITING_DATE_UTC : 2015-11-04 18:09:07
_STATISTICS_TAGS : BPS DURATION NUMBER_OF_FRAMES NUMBER_OF_BYTES

Видео
Идентификатор : 1
Формат : AVC
Формат/Информация : Advanced Video Codec
Профиль формата : High@L4.1
Параметр CABAC формата : Да
Параметр ReFrames формата : 4 кадра
Идентификатор кодека : V_MPEG4/ISO/AVC
Продолжительность : 2 ч. 4 м.
Битрейт : 4394 Кбит/сек
Ширина : 1280 пикселей
Высота : 534 пикселя
Соотношение сторон : 2,40:1
Режим частоты кадров : Постоянный
Частота кадров : 23,976 кадра/сек
Цветовое пространство : YUV
Субдискретизация насыщенности : 4:2:0
Битовая глубина : 8 бит
Тип развёртки : Прогрессивная
Бит/(Пиксели*Кадры) : 0.268
Размер потока : 3,83 Гбайт (69%)
Default : Да
Forced : Нет

Аудио #1
Идентификатор : 2
Формат : AC-3
Формат/Информация : Audio Coding 3
Расширение режима : CM (complete main)
Параметр Endianness формата : Big
Идентификатор кодека : A_AC3
Продолжительность : 2 ч. 4 м.
Вид битрейта : Постоянный
Битрейт : 384 Кбит/сек
Каналы : 6 каналов
Расположение каналов : Front: L C R, Side: L R, LFE
Частота : 48,0 КГц
Битовая глубина : 16 бит
Метод сжатия : С потерями
Размер потока : 343 Мбайт (6%)
Язык : Russian
Default : Да
Forced : Нет

Аудио #2
Идентификатор : 3
Формат : DTS
Формат/Информация : Digital Theater Systems
Режим : 16
Параметр Endianness формата : Big
Идентификатор кодека : A_DTS
Продолжительность : 2 ч. 4 м.
Вид битрейта : Постоянный
Битрейт : 1509 Кбит/сек
Каналы : 6 каналов
Расположение каналов : Front: L C R, Side: L R, LFE
Частота : 48,0 КГц
Битовая глубина : 24 бит
Метод сжатия : С потерями
Размер потока : 1,32 Гбайт (24%)
Язык : English
Default : Нет
Forced : Нет

Текст
Идентификатор : 4
Формат : PGS
Режим смешивания : zlib
Идентификатор кодека : S_HDMV/PGS
Идентификатор кодека/Информация : The same subtitle format used on BDs/HD-DVDs
Default : Да
Forced : Нет

скриншот   скриншот   скриншот  

pb.wtf
K-Lexx- писал(а):

В отчете МедиаИнфо отсутствуют сведения о настройках кодирования. Статус раздачи - # сомнительно.



Скачать Девушка без комплексов через торрент http://pic.kartinco.top/images/11/semq7.jpg Скачать фильм Девушка без комплексов через торрент бесплантно в хорошем качестве Описание:У симпатичной девушки Эми никогда не было серьезных отношений. Она придерживается свободных взглядов и обычно не ходит дважды с ... 7.6 10 19
Торрент: Зарегистрирован [2015-11-05 18:31] · скачан: 692 раз
Статус: # сомнительно
Размер: 5.59 GB
Как cкачать? Как скачать Девушка без комплексов через торрент | qTorrent

% Раздел Тема Автор DL S | L
Фильмы 2015 [DVDrip, WEB-DLRip, HDrip] [ 2.05 GB ] Девушка без комплексов / Trainwreck [2015 HDRip] killermax2013 Скачать
1 | 0
Фильмы 2015 [DVDrip, WEB-DLRip, HDrip] [ 2.18 GB ] Девушка без комплексов / Trainwreck [2015 BDRip-AVC] DUB potroks Скачать
1 | 0
Фильмы [HD 720p, 1080p] (Хороший звук DUB, MVO) [ 11.54 GB ] Девушка без комплексов / Trainwreck [2015 BDRip 1080p от _denis_100 / NNNB] - [] _denis_100 Скачать
1 | 0
Фильмы 2015 [DVDrip, WEB-DLRip, HDrip] [ 1.46 GB ] Девушка без комплексов / Trainwreck [2015 BDRip-AVC] DUB potroks Скачать
1 | 0
Фильмы 2015 [DVDrip, WEB-DLRip, HDrip] [ 2.18 GB ] Девушка без комплексов / Trainwreck [2015 BDRip-AVC от sokol_ok] [Театральная версия] DUB sokol_ok Скачать
2 | 0
Фильмы 2015 [DVDrip, WEB-DLRip, HDrip] [ 1.46 GB ] Девушка без комплексов / Trainwreck [2015 BDRip-AVC от sokol_ok] [Театральная версия] DUB sokol_ok Скачать
2 | 0
Фильмы 2015 [DVDrip, WEB-DLRip, HDrip] [ 1.45 GB ] Девушка без комплексов / Trainwreck [2015 HDRip ] $-DRON-$ Скачать
1 | 0


Последний раз редактировалось: $-DRON-$ (2015-11-05 19:06), всего редактировалось 4 раз(а)

28-11-2019 20:33  

Отключить всю рекламу на сайте

    Дорогой пользователь! Огромная просьба, поблагодарите релизера, оцените раздачу и оставьте свои комментарий, если Вы скачали Девушка без комплексов через торрент бесплатно! Внесите свою лепту в развитие PiratBit!
    Комментировать посты могут только пользователи прошедшие не сложную регистрацию
    Показать сообщения:    

    Девушка без комплексов через торрент
    Скачать бесплатно Девушка без комплексов
    Девушка без комплексов скачать торрент
    Девушка без комплексов смотреть онлайн
    Cкачать фильм Девушка без комплексов бесплатно
    Девушка без комплексов скачать торрент в хорошем качестве
    Девушка без комплексов смотреть онлайн бесплатно в хорошем качестве


    Вы не можете начинать темы
    Вы не можете отвечать на сообщения
    Вы не можете редактировать свои сообщения
    Вы не можете удалять свои сообщения
    Вы не можете голосовать в опросах
    Вы не можете прикреплять файлы к сообщениям
    Вы можете скачивать файлы