2 сезон

iTunes

MVO

1

2 сезон

iTunes

1 сезон

1 сезон

RePack

30

Ultimate

ВАЖНО

ИГРА 18+

pack

RePack

MK11
pack

Легкие деньги

RePack

jed

RePack

fifa19

RePack

RDR2

RePack

NEED FOR SPEED™ PAYBACK

4 сезон

9 сезон

Бесстыжие 9 сезон

Все сериалы

все сериалы на PB.wtf

RePack

FAR CRY 5

Anonymous, добрый вечер, мы не успеваем собрать деньги на оплату серверов за декабрь и январь, помогите нам пожалуйста в это трудное время. В качестве благодарности мы отключим Вам всю рекламу на сайте (укажите свой ник в строку Ваше имя)!

×
  
Magnet ссылка

BBC: Истоки жизни / First Life (Мартин Уильямс ) [2010, документальный, BDRip, Профессиональный (дублированный)] pb.wtf

BBC: Истоки жизни через торрент pb.wtf

Размер: 1.78 GB | Добавлен: 5 лет 2 мес. назад | Торрент скачан:16 раз
Скачать  

05-11-2015 19:10 BBC: Истоки жизни Скачать торрент  

BBC: Истоки жизни / First Life
Год выпуска: 2010
Страна: Великобритания
Жанр: документальный
Продолжительность: 2 х 00:58:58
Перевод: Профессиональный (дублированный)
Субтитры: русские (Russian)
английские (English)
Режиссер: Мартин Уильямс
В ролях:
Дэвид Аттенборо (играет самого себя - презентатор), Хэйзел Бартон (играет саму себя - Microbiologist, Northern Kentucky University), Бернард Деньян (играет самого себя - Marine Biologist, University of Queensland), Филип Донохью (играет самого себя - Palaeontologist, University of Bristol), Mary Droser (играет саму себя - Palaeontologist, University of California), Джим Гелинг (играет самого себя - Palaeontoloigst, South Australia Museum), Гай Нарбонне (играет самого себя - Palaeontologist, Queen's University, Ontario), Жан-Бернар Карон (играет самого себя - Palaeontologist, Royal Ontario Museum), Richard Fortey (играет самого себя - Palaeontologist, Natural History Museum), Джастин Маршалл (играет самого себя - Marine Neurobiologist, University of Queensland)
Описание:
За 50 лет работы на телевидении сэр Дэвид Аттенбро объездил весь земной шар, показывая живой мир во всей его удивительной красоте. Теперь он отправляется в прошлое, к корням дерева жизни, чтобы найти самых первых живых существ, появившихся на нашей планете и попытаться разгадать величайшую загадку появления и развития жизни на Земле.
Рейтинг:

Качество: BDRip
Формат: MKV
Видео: AVC, 1024x576 (16:9),1930 kbps, 25 fps, 0,131 bpp
Аудио №1: русский / AC3 / 2.0 / 48 kHz / 128 kbps / 16 bit
Аудио №2: английский / AC3 / 2.0 / 48 kHz / 128 kbps / 16 bit


скриншот   скриншот   скриншот  

Код:

General
Unique ID                                : 56890475555156055719221446273485886712 (0x2ACCB500B7E308893A49D70E2E31D4F8)
Complete name                            : D:\download\BBC Истоки жизни\BBC Истоки жизни.Зарождение.mkv
Format                                   : Matroska
Format version                           : Version 2
File size                                : 941 MiB
Duration                                 : 58mn 58s
Overall bit rate                         : 2 231 Kbps
Writing application                      : XviD4PSP 6.0 / 53.6.0
Writing library                          : XviD4PSP 6.0 / 53.6.0

Video
ID                                       : 1
Format                                   : AVC
Format/Info                              : Advanced Video Codec
Format profile                           : High@L4.1
Format settings, CABAC                   : Yes
Format settings, ReFrames                : 3 frames
Codec ID                                 : V_MPEG4/ISO/AVC
Duration                                 : 58mn 58s
Bit rate                                 : 1 930 Kbps
Width                                    : 1 024 pixels
Height                                   : 576 pixels
Display aspect ratio                     : 16:9
Frame rate mode                          : Variable
Frame rate                               : 25.000 fps
Color space                              : YUV
Chroma subsampling                       : 4:2:0
Bit depth                                : 8 bits
Scan type                                : Progressive
Bits/(Pixel*Frame)                       : 0.131
Stream size                              : 814 MiB (87%)
Title                                    : David Attenborough's First Life. Episode 1. Arrival
Writing library                          : x264 core 116 r2019M 9cc407d
Encoding settings                        : cabac=1 / ref=3 / deblock=1:0:0 / analyse=0x3:0x133 / me=hex / subme=7 / psy=1 / psy_rd=1.00:0.20 / mixed_ref=1 / me_range=16 / chroma_me=1 / trellis=1 / 8x8dct=1 / cqm=0 / deadzone=21,11 / fast_pskip=1 / chroma_qp_offset=-3 / threads=8 / sliced_threads=0 / nr=0 / decimate=1 / interlaced=0 / bluray_compat=0 / constrained_intra=0 / bframes=3 / b_pyramid=1 / b_adapt=2 / b_bias=0 / direct=3 / weightb=1 / open_gop=0 / weightp=2 / keyint=250 / keyint_min=25 / scenecut=40 / intra_refresh=0 / rc_lookahead=40 / rc=crf / mbtree=1 / crf=20.0 / qcomp=0.60 / qpmin=10 / qpmax=51 / qpstep=4 / ip_ratio=1.40 / aq=1:1.00
Language                                 : Russian
Default                                  : Yes
Forced                                   : No

Audio #1
ID                                       : 2
Format                                   : AC-3
Format/Info                              : Audio Coding 3
Mode extension                           : CM (complete main)
Codec ID                                 : A_AC3
Duration                                 : 58mn 58s
Bit rate mode                            : Constant
Bit rate                                 : 128 Kbps
Channel(s)                               : 2 channels
Channel positions                        : Front: L R
Sampling rate                            : 48.0 KHz
Bit depth                                : 16 bits
Compression mode                         : Lossy
Stream size                              : 54.0 MiB (6%)
Title                                    : Russian
Language                                 : Russian
Default                                  : Yes
Forced                                   : No

Audio #2
ID                                       : 3
Format                                   : AC-3
Format/Info                              : Audio Coding 3
Mode extension                           : CM (complete main)
Codec ID                                 : A_AC3
Duration                                 : 58mn 58s
Bit rate mode                            : Constant
Bit rate                                 : 128 Kbps
Channel(s)                               : 2 channels
Channel positions                        : Front: L R
Sampling rate                            : 48.0 KHz
Bit depth                                : 16 bits
Compression mode                         : Lossy
Stream size                              : 54.0 MiB (6%)
Title                                    : English
Language                                 : English
Default                                  : Yes
Forced                                   : No

Text #1
ID                                       : 4
Format                                   : UTF-8
Codec ID                                 : S_TEXT/UTF8
Codec ID/Info                            : UTF-8 Plain Text
Title                                    : Russian
Language                                 : Russian
Default                                  : Yes
Forced                                   : No

Text #2
ID                                       : 5
Format                                   : UTF-8
Codec ID                                 : S_TEXT/UTF8
Codec ID/Info                            : UTF-8 Plain Text
Title                                    : English
Language                                 : English
Default                                  : Yes
Forced                                   : No

Unique ID                                : 309100012318877689438346655732340135783 (0xE88A7F3858DDA5BD32D1E56598349767)
Complete name                            : D:\download\BBC Истоки жизни\BBC Истоки жизни.Завоевание.mkv
Format                                   : Matroska
Format version                           : Version 2
File size                                : 879 MiB
Duration                                 : 58mn 57s
Overall bit rate                         : 2 085 Kbps
Writing application                      : XviD4PSP 6.0 / 53.6.0
Writing library                          : XviD4PSP 6.0 / 53.6.0

Video
ID                                       : 1
Format                                   : AVC
Format/Info                              : Advanced Video Codec
Format profile                           : High@L4.1
Format settings, CABAC                   : Yes
Format settings, ReFrames                : 3 frames
Codec ID                                 : V_MPEG4/ISO/AVC
Duration                                 : 58mn 57s
Bit rate                                 : 1 788 Kbps
Width                                    : 1 024 pixels
Height                                   : 576 pixels
Display aspect ratio                     : 16:9
Frame rate mode                          : Variable
Frame rate                               : 25.000 fps
Color space                              : YUV
Chroma subsampling                       : 4:2:0
Bit depth                                : 8 bits
Scan type                                : Progressive
Bits/(Pixel*Frame)                       : 0.121
Stream size                              : 754 MiB (86%)
Title                                    : David Attenborough's First Life. Episode 2. Conquest
Writing library                          : x264 core 116 r2019M 9cc407d
Encoding settings                        : cabac=1 / ref=3 / deblock=1:0:0 / analyse=0x3:0x133 / me=hex / subme=7 / psy=1 / psy_rd=1.00:0.20 / mixed_ref=1 / me_range=16 / chroma_me=1 / trellis=1 / 8x8dct=1 / cqm=0 / deadzone=21,11 / fast_pskip=1 / chroma_qp_offset=-3 / threads=8 / sliced_threads=0 / nr=0 / decimate=1 / interlaced=0 / bluray_compat=0 / constrained_intra=0 / bframes=3 / b_pyramid=1 / b_adapt=2 / b_bias=0 / direct=3 / weightb=1 / open_gop=0 / weightp=2 / keyint=250 / keyint_min=25 / scenecut=40 / intra_refresh=0 / rc_lookahead=40 / rc=crf / mbtree=1 / crf=20.0 / qcomp=0.60 / qpmin=10 / qpmax=51 / qpstep=4 / ip_ratio=1.40 / aq=1:1.00
Language                                 : Russian
Default                                  : Yes
Forced                                   : No

Audio #1
ID                                       : 2
Format                                   : AC-3
Format/Info                              : Audio Coding 3
Mode extension                           : CM (complete main)
Codec ID                                 : A_AC3
Duration                                 : 58mn 57s
Bit rate mode                            : Constant
Bit rate                                 : 128 Kbps
Channel(s)                               : 2 channels
Channel positions                        : Front: L R
Sampling rate                            : 48.0 KHz
Bit depth                                : 16 bits
Compression mode                         : Lossy
Stream size                              : 54.0 MiB (6%)
Title                                    : Russian
Language                                 : Russian
Default                                  : Yes
Forced                                   : No

Audio #2
ID                                       : 3
Format                                   : AC-3
Format/Info                              : Audio Coding 3
Mode extension                           : CM (complete main)
Codec ID                                 : A_AC3
Duration                                 : 58mn 57s
Bit rate mode                            : Constant
Bit rate                                 : 128 Kbps
Channel(s)                               : 2 channels
Channel positions                        : Front: L R
Sampling rate                            : 48.0 KHz
Bit depth                                : 16 bits
Compression mode                         : Lossy
Stream size                              : 54.0 MiB (6%)
Title                                    : English
Language                                 : English
Default                                  : Yes
Forced                                   : No

Text #1
ID                                       : 4
Format                                   : UTF-8
Codec ID                                 : S_TEXT/UTF8
Codec ID/Info                            : UTF-8 Plain Text
Title                                    : Russian
Language                                 : Russian
Default                                  : Yes
Forced                                   : No

Text #2
ID                                       : 5
Format                                   : UTF-8
Codec ID                                 : S_TEXT/UTF8
Codec ID/Info                            : UTF-8 Plain Text
Title                                    : English
Language                                 : English
Default                                  : Yes
Forced                                   : No


Фильм 1:Зарождение
Фильм 2:Завоевание
pb.wtf



Скачать BBC: Истоки жизни через торрент https://pic1.kartinco.top/images/10/3hcn7.jpg Скачать фильм BBC: Истоки жизни через торрент бесплантно в хорошем качестве Описание: За 50 лет работы на телевидении сэр Дэвид Аттенбро объездил весь земной шар, показывая живой мир во всей его удивительной ... 9 10 4
Торрент: Зарегистрирован [2015-11-05 19:10] · скачан: 16 раз
Статус: √ проверено
Размер: 1.78 GB
Как cкачать? Как скачать BBC: Истоки жизни через торрент | UTorrent

% Раздел Тема Автор DL S | L
BBC [ 2.15 GB ] BBC: Истоки жизни / First Life [2010 документальный HDRip одноголосый] кэп Скачать
1 | 0

28-11-2019 20:33  

Отключить всю рекламу на сайте

    Дорогой пользователь! Огромная просьба, поблагодарите релизера, оцените раздачу и оставьте свои комментарий, если Вы скачали BBC: Истоки жизни через торрент бесплатно! Внесите свою лепту в развитие PiratBit!
    Комментировать посты могут только пользователи прошедшие не сложную регистрацию
    Показать сообщения:    

    BBC: Истоки жизни через торрент
    Скачать бесплатно BBC: Истоки жизни
    BBC: Истоки жизни скачать торрент
    BBC: Истоки жизни смотреть онлайн
    Cкачать фильм BBC: Истоки жизни бесплатно
    BBC: Истоки жизни скачать торрент в хорошем качестве
    BBC: Истоки жизни смотреть онлайн бесплатно в хорошем качестве


    Вы не можете начинать темы
    Вы не можете отвечать на сообщения
    Вы не можете редактировать свои сообщения
    Вы не можете удалять свои сообщения
    Вы не можете голосовать в опросах
    Вы не можете прикреплять файлы к сообщениям
    Вы можете скачивать файлы