Ссылка на приватное зеркало нашего сайта всего за 1$. Внимание количество ограничено!!!

2 сезон

iTunes

1 сезон

1

2 сезон

2 сезон

iTunes

1 сезон

RePack

30

Ultimate

ВАЖНО

ИГРА 18+

pack

RePack

MK11
pack

Забери бонус

RePack

jed

!!Акция!!

Alien_Rage

RePack

fifa19

RePack

Assassins Creed: Odyssey

RePack

NEED FOR SPEED™ PAYBACK

4 сезон

9 сезон

Бесстыжие 9 сезон

Все сериалы

все сериалы на PB.wtf

RePack

FAR CRY 5
  

Джон Картер / John Carter (Эндрю Стэнтон / Andrew Stanton) [2012, США, фантастика, фэнтези, боевик, BD Remux 1080p,[Дубляж - Лицензия]+ |Одноголосый закадровый, А.Гаврилов| pb.wtf

Джон Картер через торрент pb.wtf

Размер: 39.38 GB | Добавлен: 5 лет назад | Торрент скачан:27 раз
Скачать  

07-11-2015 06:19 Джон Картер Скачать торрент  

Джон Картер / John Carter

Год выпуска: 2012
Страна: США
Жанр: фантастика, фэнтези, боевик, приключения
Продолжительность: 02:12:01
Озвучивание: Профессиональное (дублированное) + Авторское (одноголосое закадровое)

Субтитры: Russian (3xForced, 2xFull, Commentary), Ukrainian (Forced, Full, Commentary), English (Forced, 2xFull, 2xSDH, SDH Colored, Commentary)

Режиссёр: Эндрю Стэнтон

В ролях: Тейлор Китч, Линн Коллинс, Марк Стронг, Доминик Уэст, Джеймс Пьюрфой, Брайан Крэнстон, Дэрил Сабара, Аманда Клэйтон, Киаран Хайндс, Николас Вудесон и др.

Описание: Ветеран Гражданской войны в США Джон Картер против своей воли оказывается на Марсе, где попадает в плен к воинственным четырёхметровым туземцам. Картеру предстоит не только спастись самому, но и спасти принцессу Дею Торис из Гелиума.


Качество: BDRemux 1080p
Контейнер: MKV
Видео: MPEG-4 AVC Video / 25886 kbps / 1920x1080 / 23,976 fps / 16:9 / High Profile 4.1
Аудио 1: Russian / DTS-HD MA / 5.1 / 48 kHz / 3773 kbps / 24-bit | Dub
Аудио 2: Russian / AC3 / 5.1 / 48 kHz / 640 kbps / 16-bit | Dub BD CEE
Аудио 3: Russian / DTS-HD MA / 7.1 / 48 kHz / 4817 kbps / 24-bit | VO Андрей Гаврилов
Аудио 4: Russian / AC3 / 5.1 / 48 kHz / 640 kbps / 16-bit | VO Андрей Гаврилов
Аудио 5: Ukrainian / AC3 / 5.1 / 48 kHz / 640 kbps / 16-bit | Dub BD CEE
Аудио 6: English / DTS-HD MA / 7.1 / 48 kHz / 5340 kbps / 24-bit | Original
Аудио 7: English / AC3 / 5.1 / 48 kHz / 640 kbps / 16-bit | Original
Аудио 8: English / AC3 / 2.0 / 48 kHz / 320 kbps / 16-bit | Commentary
Чаптеры: есть
C:HYPERHDJohn Carter 2012 BDRemux 1080p HYPERHD.mkv
General
Unique ID : 247569427734616136227959676546289065261 (0xBA40232DE26A4B4CB8E738F703815D2D)
Complete name : C:HYPERHDJohn Carter 2012 BDRemux 1080p HYPERHD.mkv
Format : Matroska
Format version : Version 4 / Version 2
File size : 39.4 GiB
Duration : 2h 12mn
Overall bit rate mode : Variable
Overall bit rate : 42.7 Mbps
Movie name : John Carter 2012 BDRemux 1080p HYPERHD
Encoded date : UTC 2014-05-24 15:19:26
Writing application : mkvmerge v6.9.1 ('Blue Panther') 64bit built on Apr 18 2014 18:23:38
Writing library : libebml v1.3.0 + libmatroska v1.4.1
Attachment : Yes
Video #1
ID : 1
Format : AVC
Format/Info : Advanced Video Codec
Format profile : High@L4.1
Format settings, CABAC : Yes
Format settings, ReFrames : 4 frames
Format settings, GOP : M=3, N=12
Codec ID : V_MPEG4/ISO/AVC
Duration : 2h 12mn
Bit rate mode : Variable
Maximum bit rate : 37.0 Mbps
Width : 1 920 pixels
Height : 1 080 pixels
Display aspect ratio : 16:9
Frame rate mode : Constant
Frame rate : 23.976 fps
Color space : YUV
Chroma subsampling : 4:2:0
Bit depth : 8 bits
Scan type : Progressive
Title : John Carter 2012 BDRemux 1080p HYPERHD
Language : English
Default : Yes
Forced : No
Audio #2
ID : 2
Format : DTS
Format/Info : Digital Theater Systems
Format profile : MA / Core
Mode : 16
Format settings, Endianness : Big
Codec ID : A_DTS
Duration : 2h 12mn
Bit rate mode : Variable
Bit rate : Unknown / 1 509 Kbps
Channel count : 6 channels
Channel positions : Front: L C R, Side: L R, LFE
Sampling rate : 48.0 KHz
Bit depth : 24 bits
Compression mode : Lossless / Lossy
Title : Dub
Language : Russian
Default : Yes
Forced : No
Audio #3
ID : 3
Format : AC-3
Format/Info : Audio Coding 3
Mode extension : CM (complete main)
Format settings, Endianness : Big
Codec ID : A_AC3
Duration : 2h 12mn
Bit rate mode : Constant
Bit rate : 640 Kbps
Channel count : 6 channels
Channel positions : Front: L C R, Side: L R, LFE
Sampling rate : 48.0 KHz
Bit depth : 16 bits
Compression mode : Lossy
Stream size : 604 MiB (1%)
Title : Dub BD CEE
Language : Russian
Default : No
Forced : No
Audio #4
ID : 4
Format : DTS
Format/Info : Digital Theater Systems
Format profile : MA / Core
Mode : 16
Format settings, Endianness : Big
Codec ID : A_DTS
Duration : 2h 12mn
Bit rate mode : Variable
Bit rate : Unknown / 1 509 Kbps
Channel count : 8 channels / 6 channels
Channel positions : Front: L C R, Side: L R, Back: L R, LFE / Front: L C R, Side: L R, LFE
Sampling rate : 48.0 KHz
Bit depth : 24 bits
Compression mode : Lossless / Lossy
Title : VO Андрей Гаврилов (New)
Language : Russian
Default : No
Forced : No
Audio #5
ID : 5
Format : AC-3
Format/Info : Audio Coding 3
Mode extension : CM (complete main)
Format settings, Endianness : Big
Codec ID : A_AC3
Duration : 2h 12mn
Bit rate mode : Constant
Bit rate : 640 Kbps
Channel count : 6 channels
Channel positions : Front: L C R, Side: L R, LFE
Sampling rate : 48.0 KHz
Bit depth : 16 bits
Compression mode : Lossy
Stream size : 604 MiB (1%)
Title : VO Андрей Гаврилов (New)
Language : Russian
Default : No
Forced : No
Audio #6
ID : 6
Format : AC-3
Format/Info : Audio Coding 3
Mode extension : CM (complete main)
Format settings, Endianness : Big
Codec ID : A_AC3
Duration : 2h 12mn
Bit rate mode : Constant
Bit rate : 640 Kbps
Channel count : 6 channels
Channel positions : Front: L C R, Side: L R, LFE
Sampling rate : 48.0 KHz
Bit depth : 16 bits
Compression mode : Lossy
Stream size : 604 MiB (1%)
Title : Dub BD CEE
Language : Ukrainian
Default : No
Forced : No
Audio #7
ID : 7
Format : DTS
Format/Info : Digital Theater Systems
Format profile : MA / Core
Mode : 16
Format settings, Endianness : Big
Codec ID : A_DTS
Duration : 2h 12mn
Bit rate mode : Variable
Bit rate : Unknown / 1 509 Kbps
Channel count : 8 channels / 6 channels
Channel positions : Front: L C R, Side: L R, Back: L R, LFE / Front: L C R, Side: L R, LFE
Sampling rate : 48.0 KHz
Bit depth : 24 bits
Compression mode : Lossless / Lossy
Title : Original
Language : English
Default : No
Forced : No
Audio #8
ID : 8
Format : AC-3
Format/Info : Audio Coding 3
Mode extension : CM (complete main)
Format settings, Endianness : Big
Codec ID : A_AC3
Duration : 2h 12mn
Bit rate mode : Constant
Bit rate : 640 Kbps
Channel count : 6 channels
Channel positions : Front: L C R, Side: L R, LFE
Sampling rate : 48.0 KHz
Bit depth : 16 bits
Compression mode : Lossy
Stream size : 604 MiB (1%)
Title : Original
Language : English
Default : No
Forced : No
Audio #9
ID : 9
Format : AC-3
Format/Info : Audio Coding 3
Mode extension : CM (complete main)
Format settings, Endianness : Big
Codec ID : A_AC3
Duration : 2h 12mn
Bit rate mode : Constant
Bit rate : 320 Kbps
Channel count : 2 channels
Channel positions : Front: L R
Sampling rate : 48.0 KHz
Bit depth : 16 bits
Compression mode : Lossy
Stream size : 302 MiB (1%)
Title : Commentary
Language : English
Default : No
Forced : No
Text #10
ID : 10
Format : UTF-8
Codec ID : S_TEXT/UTF8
Codec ID/Info : UTF-8 Plain Text
Title : Forced Евгений Воронин
Language : Russian
Default : Yes
Forced : No
Text #11
ID : 11
Format : UTF-8
Codec ID : S_TEXT/UTF8
Codec ID/Info : UTF-8 Plain Text
Title : Forced BD CEE
Language : Russian
Default : No
Forced : No
Text #12
ID : 12
Format : UTF-8
Codec ID : S_TEXT/UTF8
Codec ID/Info : UTF-8 Plain Text
Title : Forced 3
Language : Russian
Default : No
Forced : No
Text #13
ID : 13
Format : UTF-8
Codec ID : S_TEXT/UTF8
Codec ID/Info : UTF-8 Plain Text
Title : Full Евгений Воронин
Language : Russian
Default : No
Forced : No
Text #14
ID : 14
Format : UTF-8
Codec ID : S_TEXT/UTF8
Codec ID/Info : UTF-8 Plain Text
Title : Full BD CEE
Language : Russian
Default : No
Forced : No
Text #15
ID : 15
Format : UTF-8
Codec ID : S_TEXT/UTF8
Codec ID/Info : UTF-8 Plain Text
Title : Commentary
Language : Russian
Default : No
Forced : No
Text #16
ID : 16
Format : UTF-8
Codec ID : S_TEXT/UTF8
Codec ID/Info : UTF-8 Plain Text
Title : Forced BD CEE
Language : Ukrainian
Default : No
Forced : No
Text #17
ID : 17
Format : UTF-8
Codec ID : S_TEXT/UTF8
Codec ID/Info : UTF-8 Plain Text
Title : Full BD CEE
Language : Ukrainian
Default : No
Forced : No
Text #18
ID : 18
Format : UTF-8
Codec ID : S_TEXT/UTF8
Codec ID/Info : UTF-8 Plain Text
Title : Commentary
Language : Ukrainian
Default : No
Forced : No
Text #19
ID : 19
Format : UTF-8
Codec ID : S_TEXT/UTF8
Codec ID/Info : UTF-8 Plain Text
Title : Forced
Language : English
Default : No
Forced : No
Text #20
ID : 20
Format : UTF-8
Codec ID : S_TEXT/UTF8
Codec ID/Info : UTF-8 Plain Text
Title : Full 1
Language : English
Default : No
Forced : No
Text #21
ID : 21
Format : UTF-8
Codec ID : S_TEXT/UTF8
Codec ID/Info : UTF-8 Plain Text
Title : Full 2
Language : English
Default : No
Forced : No
Text #22
ID : 22
Format : UTF-8
Codec ID : S_TEXT/UTF8
Codec ID/Info : UTF-8 Plain Text
Title : SDH 1
Language : English
Default : No
Forced : No
Text #23
ID : 23
Format : UTF-8
Codec ID : S_TEXT/UTF8
Codec ID/Info : UTF-8 Plain Text
Title : SDH 2
Language : English
Default : No
Forced : No
Text #24
ID : 24
Format : UTF-8
Codec ID : S_TEXT/UTF8
Codec ID/Info : UTF-8 Plain Text
Title : SDH Colored
Language : English
Default : No
Forced : No
Text #25
ID : 25
Format : UTF-8
Codec ID : S_TEXT/UTF8
Codec ID/Info : UTF-8 Plain Text
Title : Commentary
Language : English
Default : No
Forced : No
Menu
00:00:00.000 : en:HYPERHD 01
00:04:01.241 : en:HYPERHD 02
00:10:22.913 : en:HYPERHD 03
00:20:08.790 : en:HYPERHD 04
00:27:05.206 : en:HYPERHD 05
00:37:29.163 : en:HYPERHD 06
00:47:43.569 : en:HYPERHD 07
00:58:51.653 : en:HYPERHD 08
01:07:42.433 : en:HYPERHD 09
01:15:01.038 : en:HYPERHD 10
01:22:34.199 : en:HYPERHD 11
01:30:29.799 : en:HYPERHD 12
01:37:02.066 : en:HYPERHD 13
01:46:52.030 : en:HYPERHD 14
01:53:48.988 : en:HYPERHD 15
02:02:54.533 : en:HYPERHD 16
скриншот  скриншот  скриншот  скриншот  скриншот  скриншот  
pb.wtf



Скачать Джон Картер через торрент http://pic1.kartinco.top/images/10/raofp.jpg Скачать фильм Джон Картер через торрент бесплантно в хорошем качестве Описание: Ветеран Гражданской войны в США Джон Картер против своей воли оказывается на Марсе, где попадает в плен к воинственным ... 10 10 5
Торрент: Зарегистрирован [2015-11-07 06:19] · скачан: 27 раз
Статус: √ проверено
Размер: 39.38 GB
Как cкачать? Как скачать Джон Картер через торрент | qTorrent

% Раздел Тема Автор DL S | L
3D Фильмы [ 45.87 GB ] Джон Картер / John Carter [2012 BD Remux [ - ]+ |Одноголосый закадровый А.Гаврилов| Ворон Скачать
1 | 0

28-11-2019 20:33  

Отключить всю рекламу на сайте

    Дорогой пользователь! Огромная просьба, поблагодарите релизера, оцените раздачу и оставьте свои комментарий, если Вы скачали Джон Картер через торрент бесплатно! Внесите свою лепту в развитие PiratBit!
    Комментировать посты могут только пользователи прошедшие не сложную регистрацию
    Показать сообщения:    

    Джон Картер через торрент
    Скачать бесплатно Джон Картер
    Джон Картер скачать торрент
    Джон Картер смотреть онлайн
    Cкачать фильм Джон Картер бесплатно
    Джон Картер скачать торрент в хорошем качестве
    Джон Картер смотреть онлайн бесплатно в хорошем качестве


    Вы не можете начинать темы
    Вы не можете отвечать на сообщения
    Вы не можете редактировать свои сообщения
    Вы не можете удалять свои сообщения
    Вы не можете голосовать в опросах
    Вы не можете прикреплять файлы к сообщениям
    Вы можете скачивать файлы