Ссылка на приватное зеркало нашего сайта всего за 1$. Внимание количество ограничено!!!

2 сезон

iTunes

1 сезон

1

iTunes

iTunes

iTunes

1 сезон

RePack

30

ИГРА 18+

pack

ВАЖНО

!!Акция!!

Alien_RageХит недели

RePack

MK11
pack

Забери бонус

RePack

jed

!!Акция!!

Alien_Rage

RePack

fifa19

RePack

Assassins Creed: Odyssey

RePack

NEED FOR SPEED™ PAYBACK

4 сезон

9 сезон

Бесстыжие 9 сезон

Все сериалы

все сериалы на PB.wtf

RePack

FAR CRY 5
  

Мордекай / Mortdecai (Дэвид Кепп / David Koepp) [2015, боевик, мелодрама, комедия, BDRip 720p от potroks] Dub [iTunes] pb.wtf

Мордекай через торрент pb.wtf

Раздают: 1 [ 0 KB/s ]
Размер: 4.18 GB | Добавлен: 4 года 11 мес. назад | Торрент скачан:389 раз
Скачать  

07-11-2015 08:38 Мордекай Скачать торрент  

Мордекай / Mortdecai
«У совершенства есть имя»
Год выпуска: 2015
Страна: Великобритания, США / Odd Lot Entertainment...
Жанр: боевик, мелодрама, комедия, детектив
Продолжительность: 01:46:42
Перевод: Дубляж [iTunes]
Субтитры: английские (Full), английские (SDH), английские (SDH-Colored)
Навигация по главам: есть
Режиссер: Дэвид Кепп / David Koepp
В ролях:

Джонни Депп (Mortdecai), Гвинет Пэлтроу (Johanna), Пол Беттани (Jock), Юэн МакГрегор (Martland), Оливия Манн (Georgina), Джонатон Пасвольски (Emil), Майкл Калкин (Sir Graham), Ульрих Томсен (Romanov), Алек Утгофф (Dmitri), Роб де Гроот (Vladimir), Гай Бернет (Maurice), Джефф Голдблюм (Krampf)
Описание: В центре сюжета - история Чарльза Мордекая, обходительного арт-дельца и жулика по совместительству, который путешествует по всему миру и с помощью своего неотразимого обаяния пытается раздобыть украденную картину. По слухам, в этом произведении искусства содержится код доступа к банковской ячейке, наполненной нацистским золотом. По ходу Мордекаю приходится улаживать дела с недобрыми русскими, британской разведкой Mi5, международным террористом и со своей умопомрачительно длинноногой женой.

Качество: BDRip 720p
Формат: MKV
Видео кодек: AVC
Аудио кодек: AC3
Видео: AVC, 1280x534 (2.40:1), 4586 kbps, 23,976 fps, 0.280 bit/pixel
Аудио#1: AC3 / 5.1 / 48 kHz / 384 kbps / 16 bit | RUS
Аудио#2: AC3 / 5.1 / 48 kHz / 640 kbps / 16 bit | ENG

Релиз группы:
Автор рипа: potroks

Код:

General
Unique ID                   : 185960187537062346166930913066573051300 (0x8BE6A11E0247226295CE5DEA4EF335A4)
Complete name               : Mordekay.2015.DUAL.BDRip.720p.-HELLYWOOD.mkv
Format                      : Matroska
Format version              : Version 4 / Version 2
File size                   : 4.18 GiB
Duration                    : 1h 46mn
Overall bit rate            : 5 611 Kbps
Movie name                  : Mortdecai (2015) - HELLYWOOD
Encoded date                : UTC 2010-02-22 21:41:31
Writing application         : mkvmerge v5.8.0 ('No Sleep / Pillow') built on Sep 30 2012 10:57:14
Writing library             : libebml v1.3.0 + libmatroska v1.4.0

Video
ID                          : 1
Format                      : AVC
Format/Info                 : Advanced Video Codec
Format profile              : High@L4.1
Format settings, CABAC      : Yes
Format settings, ReFrames   : 9 frames
Codec ID                    : V_MPEG4/ISO/AVC
Duration                    : 1h 46mn
Bit rate                    : 4 586 Kbps
Width                       : 1 280 pixels
Height                      : 534 pixels
Display aspect ratio        : 2.40:1
Frame rate mode             : Constant
Frame rate                  : 23.976 fps
Color space                 : YUV
Chroma subsampling          : 4:2:0
Bit depth                   : 8 bits
Scan type                   : Progressive
Bits/(Pixel*Frame)          : 0.280
Stream size                 : 3.34 GiB (80%)
Title                       : potroks
Writing library             : x264 core 146 r2538 121396c
Encoding settings           : cabac=1 / ref=9 / deblock=1:-2:-2 / analyse=0x3:0x113 / me=umh / subme=11 / psy=1 / psy_rd=1.01:0.04 / mixed_ref=1 / me_range=48 / chroma_me=1 / trellis=2 / 8x8dct=1 / cqm=0 / deadzone=21,11 / fast_pskip=0 / chroma_qp_offset=-3 / threads=9 / lookahead_threads=2 / sliced_threads=0 / nr=0 / decimate=0 / interlaced=0 / bluray_compat=0 / constrained_intra=0 / bframes=10 / b_pyramid=2 / b_adapt=2 / b_bias=0 / direct=3 / weightb=1 / open_gop=0 / weightp=2 / keyint=250 / keyint_min=23 / scenecut=40 / intra_refresh=0 / rc_lookahead=60 / rc=2pass / mbtree=0 / bitrate=4586 / ratetol=1.0 / qcomp=0.70 / qpmin=0 / qpmax=69 / qpstep=4 / cplxblur=20.0 / qblur=0.5 / vbv_maxrate=14000 / vbv_bufsize=14000 / nal_hrd=none / filler=0 / ip_ratio=1.35 / pb_ratio=1.25 / aq=1:0.70
Language                    : English
Default                     : Yes
Forced                      : No

Audio #1
ID                          : 2
Format                      : AC-3
Format/Info                 : Audio Coding 3
Mode extension              : CM (complete main)
Format settings, Endianness : Big
Codec ID                    : A_AC3
Duration                    : 1h 46mn
Bit rate mode               : Constant
Bit rate                    : 384 Kbps
Channel(s)                  : 6 channels
Channel positions           : Front: L C R, Side: L R, LFE
Sampling rate               : 48.0 KHz
Compression mode            : Lossy
Stream size                 : 293 MiB (7%)
Title                       : Dub | DD 5.1 @ 384 kbps - iTunes
Language                    : Russian
Default                     : Yes
Forced                      : No

Audio #2
ID                          : 3
Format                      : AC-3
Format/Info                 : Audio Coding 3
Mode extension              : CM (complete main)
Format settings, Endianness : Big
Codec ID                    : A_AC3
Duration                    : 1h 46mn
Bit rate mode               : Constant
Bit rate                    : 640 Kbps
Channel(s)                  : 6 channels
Channel positions           : Front: L C R, Side: L R, LFE
Sampling rate               : 48.0 KHz
Compression mode            : Lossy
Stream size                 : 488 MiB (11%)
Title                       : Original | DD 5.1 @ 640 kbps
Language                    : English
Default                     : No
Forced                      : No

Text #1
ID                          : 4
Format                      : UTF-8
Codec ID                    : S_TEXT/UTF8
Codec ID/Info               : UTF-8 Plain Text
Title                       : Full
Language                    : English
Default                     : No
Forced                      : No

Text #2
ID                          : 5
Format                      : UTF-8
Codec ID                    : S_TEXT/UTF8
Codec ID/Info               : UTF-8 Plain Text
Title                       : SDH
Language                    : English
Default                     : No
Forced                      : No

Text #3
ID                          : 6
Format                      : UTF-8
Codec ID                    : S_TEXT/UTF8
Codec ID/Info               : UTF-8 Plain Text
Title                       : SDH-Colored
Language                    : English
Default                     : No
Forced                      : No

Menu
00:00:00.000                : en:Chapter 1
00:05:04.179                : en:Chapter 2
00:11:31.232                : en:Chapter 3
00:18:52.548                : en:Chapter 4
00:24:04.151                : en:Chapter 5
00:29:49.496                : en:Chapter 6
00:36:55.797                : en:Chapter 7
00:42:51.611                : en:Chapter 8
00:50:03.375                : en:Chapter 9
00:56:39.688                : en:Chapter 10
01:03:47.699                : en:Chapter 11
01:10:07.244                : en:Chapter 12
01:18:45.304                : en:Chapter 13
01:24:56.424                : en:Chapter 14
01:28:58.083                : en:Chapter 15
01:33:49.248                : en:Chapter 16

pb.wtf



Скачать Мордекай через торрент http://i75.fastpic.ru/big/2015/1107/14/191471efe3ddf0dc4466d80966577f14.png Скачать фильм Мордекай через торрент бесплантно в хорошем качестве Описание: В центре сюжета - история Чарльза Мордекая, обходительного арт-дельца и жулика по совместительству, который путешествует по ... 10 10 6
Торрент: Зарегистрирован [2015-11-07 08:38] · скачан: 389 раз
Статус: √ проверено
Размер: 4.18 GB
Как cкачать? Как скачать Мордекай через торрент | qTorrent

% Раздел Тема Автор DL S | L
Фильмы (Blu-ray, BD-Remux, HDDVD) [ 29.65 GB ] Мордекай / Mortdecai [2015 BD-Remux ] Бумер Скачать
1 | 0
Фильмы 2015 [DVDrip, WEB-DLRip, HDrip] [ 2.13 GB ] Мордекай / Mortdecai [2015 BDRip-AVC] Dub potroks Скачать
2 | 0
Фильмы 2015 [DVDrip, WEB-DLRip, HDrip] [ 1.46 GB ] Мордекай / Mortdecai [2015 HDRip] killermax2013 Скачать
1 | 0
Фильмы 2015 [DVDrip, WEB-DLRip, HDrip] [ 704 MB ] Мордекай / Mortdecai [2015 HDRip ""] coc900 Скачать
1 | 0
Фильмы 2015 [DVDrip, WEB-DLRip, HDrip] [ 1.46 GB ] Мордекай / Mortdecai [2015 BDRip-AVC отpotroks] Dub potroks Скачать
1 | 0
Фильмы 2015 [DVDrip, WEB-DLRip, HDrip] [ 1.41 GB ] Мордекай / Mortdecai [2015 BDRip ] Twi7ter Скачать
1 | 0
Фильмы 2015 [DVDrip, WEB-DLRip, HDrip] [ 2.05 GB ] Мордекай / Mortdecai [2015 HDRip - / ] 10oN Скачать
1 | 0

28-11-2019 20:33  

Отключить всю рекламу на сайте

07-11-2015 09:58 Мордекай Скачать торрент  

очень скучное и неинтересное киноpb.wtf



    Дорогой пользователь! Огромная просьба, поблагодарите релизера, оцените раздачу и оставьте свои комментарий, если Вы скачали Мордекай через торрент бесплатно! Внесите свою лепту в развитие PiratBit!
    Комментировать посты могут только пользователи прошедшие не сложную регистрацию
    Показать сообщения:    

    Мордекай через торрент
    Скачать бесплатно Мордекай
    Мордекай скачать торрент
    Мордекай смотреть онлайн
    Cкачать фильм Мордекай бесплатно
    Мордекай скачать торрент в хорошем качестве
    Мордекай смотреть онлайн бесплатно в хорошем качестве


    Вы не можете начинать темы
    Вы не можете отвечать на сообщения
    Вы не можете редактировать свои сообщения
    Вы не можете удалять свои сообщения
    Вы не можете голосовать в опросах
    Вы не можете прикреплять файлы к сообщениям
    Вы можете скачивать файлы