новый адрес
Мега распродажа FORZA HORIZON 4 ULTIMATE+ВСЕ DLC+ОНЛАЙН всего за 499р. 349 руб. (супер цена). Внимание количество ограничено!!!

iTunes

1+1

iTunes

мы

iTunes

1

iTunes

Чернобыль

iTunes

Ральф против интернета

Лицензия

ПШазам

Лицензия

Игра престолов

Лицензия

30
pack

ВАЖНО

!!Акция!!

Alien_RageХит недели

RePack

Resident Evil 21

ИГРА 18+

pack

RePack

Metro:Exodus

!!Акция!!

Alien_Rage

RePack

fifa19

RePack

Assassins Creed: Odyssey

RePack

NEED FOR SPEED™ PAYBACK

3 сезон

9 сезон

Бесстыжие 9 сезон

Все сериалы

все сериалы на PB.wtf

RePack

FAR CRY 5
Ребята, катастрофически не хватает 1900р. для оплаты серверов за Октябрь (всвязи с блокировками трафик упал в 3 раза), 1-2р., выручайте.
  

Эксперимент доктора Абста (Антон Тимонишин) [1968, СССР, боевик, приключения, военный, DVDRip от AVP Studio] pb.wtf

Эксперимент доктора Абста через торрент pb.wtf

Размер: 745 MB | Добавлен: 4 года назад | Торрент скачан:40 раз
Скачать  

07-11-2015 12:03 Эксперимент доктора Абста Скачать торрент  

Эксперимент доктора Абста
Страна: СССР
Производство: К/ст им. Довженко

Жанр: боевик, приключения, военный
Год выпуска: 1968
Продолжительность: 01:24:06

Перевод: Не требуется
Cубтитры: нет
Оригинальная аудиодорожка: русский

Режиссер: Антон Тимонишин

В ролях:
Сергей Десницкий, Лаймонас Норейка, Жанна Владимирская, Геннадий Воропаев, Улдис Пуцитис, Витаутас Томкус, Вячеслав Воронин, Пеэтер Кард, Олев Эскола, Лесь Сердюк, Евгений Весник, Галикс Колчицкий, Сергей Сибель...
Полный список актёров

Описание:
Время действия — Великая Отечественная война. Советский моряк Карцов, военврач, после гибели крейсера попадает на тайную немецкую базу пловцов-подводников в шхерах у берегов союзников. Там он вступает в единоборство с матерым фашистским разведчиком, врачом-экспериментатором и главой школы подводников, Артуром Абстом, превращающим захваченные экипажи в группу безвольных смертников-торпедистов, слепо выполняющих его приказания.

Источник: DVD5 R5
Качество видео: DVDRip
Формат видео: AVI

Видео: 720x384 (1,85:1), 25 fps, XviD ~ 1037 kbps avg, 0.150 bit/pixel
Аудио: 48 kHz, Dolby Digital AC3 2.0, 192 kbps

Раздача от:
Общее
Полное имя : Yeksperiment.doktora.Absta.1968.DVDRip_[New-team]_by_AVP_Studio.avi
Формат : AVI
Формат/Информация : Audio Video Interleave
Размер файла : 745 Мбайт
Продолжительность : 1 ч. 24 м.
Общий поток : 1239 Кбит/сек
Программа кодирования : VirtualDubMod 1.5.10.3 | www.virtualdub-fr.org || (build 2550/release)
Библиотека кодирования : VirtualDubMod build 2550/release

Видео
Идентификатор : 0
Формат : MPEG-4 Visual
Профиль формата : Advanced Simple@L5
Параметр BVOP формата : 1
Параметр QPel формата : Нет
Параметр GMC формата : Без точки перехода
Параметр матрицы формата : Выборочная
Идентификатор кодека : XVID
Идентификатор кодека/Подсказка : XviD
Продолжительность : 1 ч. 24 м.
Битрейт : 1037 Кбит/сек
Ширина : 720 пикселей
Высота : 384 пикселя
Соотношение сторон : 1,85:1
Частота кадров : 25,000 кадров/сек
Цветовое пространство : YUV
Субдискретизация насыщенности : 4:2:0
Битовая глубина : 8 бит
Тип развёртки : Прогрессивная
Метод сжатия : С потерями
Бит/(Пиксели*Кадры) : 0.150
Размер потока : 624 Мбайт (84%)
Библиотека кодирования : XviD 73

Аудио
Идентификатор : 1
Формат : AC-3
Формат/Информация : Audio Coding 3
Расширение режима : CM (complete main)
Параметр Endianness формата : Big
Идентификатор кодека : 2000
Продолжительность : 1 ч. 24 м.
Вид битрейта : Постоянный
Битрейт : 192 Кбит/сек
Каналы : 2 канала
Расположение каналов : Front: L R
Частота : 48,0 КГц
Метод сжатия : С потерями
Размер потока : 115 Мбайт (16%)
Выравнивание : Разделение по промежуткам
Продолжительность промежутка : 40 мс. (1,00 видеокадр)
Время предзагрузки промежутка : 500 мс
pb.wtf



Скачать Эксперимент доктора Абста через торрент http://i5.imageban.ru/out/2015/11/07/ab809490cd9f70b318f534ef8156bf46.png Скачать фильм Эксперимент доктора Абста через торрент бесплантно в хорошем качестве Описание:Время действия — Великая Отечественная война. Советский моряк Карцов, военврач, после гибели крейсера попадает на тайную немецкую ... 5 10 1
Торрент: Зарегистрирован [2015-11-07 12:03] · скачан: 40 раз
Статус: √ проверено
Размер: 745 MB
Как cкачать? Как скачать Эксперимент доктора Абста через торрент | qTorrent

% Раздел Тема Автор DL S | L
Кино СССР [ 1.09 GB ] Эксперимент доктора Абста [1968 СССР военный DVDRip-AVC от AVP Studio] AVP Studio Скачать
1 | 0


>> Регистрируемся здесь <<






Отзывы и комментарии о схеме читаем и пишем здесь: ---> Отзывы и комментарии о схеме

Новые благодарочки в телеграм довольных пользователей:
скриншот   скриншот   скриншот   скриншот   скриншот
    Дорогой пользователь! Огромная просьба, поблагодарите релизера, оцените раздачу и оставьте свои комментарий, если Вы скачали Эксперимент доктора Абста через торрент бесплатно! Внесите свою лепту в развитие PiratBit!
    Комментировать посты могут только пользователи прошедшие не сложную регистрацию
    Показать сообщения:    

    Эксперимент доктора Абста через торрент
    Скачать бесплатно Эксперимент доктора Абста
    Эксперимент доктора Абста скачать торрент
    Эксперимент доктора Абста смотреть онлайн
    Cкачать фильм Эксперимент доктора Абста бесплатно
    Эксперимент доктора Абста скачать торрент в хорошем качестве
    Эксперимент доктора Абста смотреть онлайн бесплатно в хорошем качестве


    Вы не можете начинать темы
    Вы не можете отвечать на сообщения
    Вы не можете редактировать свои сообщения
    Вы не можете удалять свои сообщения
    Вы не можете голосовать в опросах
    Вы не можете прикреплять файлы к сообщениям
    Вы можете скачивать файлы