новый адрес пиратбит piratbit
Мега распродажа FORZA HORIZON 4 ULTIMATE+ВСЕ DLC+ОНЛАЙН всего за 499р. 349 руб. (супер цена). Внимание количество ограничено!!!

iTunes

1+1

iTunes

мы

iTunes

1

iTunes

Чернобыль

iTunes

Ральф против интернета

Лицензия

ПШазам

Лицензия

Игра престолов

Лицензия

30
pack

ВАЖНО

!!Акция!!

Alien_RageХит недели

RePack

Resident Evil 21

ИГРА 18+

pack

RePack

Metro:Exodus

!!Акция!!

Alien_Rage

RePack

fifa19

RePack

Assassins Creed: Odyssey

RePack

NEED FOR SPEED™ PAYBACK

3 сезон

9 сезон

Бесстыжие 9 сезон

Все сериалы

все сериалы на PB.wtf

RePack

FAR CRY 5
Ребята, катастрофически не хватает 1900р. для оплаты серверов за Октябрь (всвязи с блокировками трафик упал в 3 раза), 1-2р., выручайте.
  

Жаворонок (Никита Курихин, Леонид Менакер) [1964, СССР, драма, военный, SATRip от AVP Studio] pb.wtf

Жаворонок через торрент pb.wtf

Размер: 744 MB | Добавлен: 4 года назад | Торрент скачан:29 раз
Скачать  

07-11-2015 15:52 Жаворонок Скачать торрент  

Жаворонок
Страна: СССР
Производство: Ленфильм

Жанр: драма, военный
Год выпуска: 1964
Продолжительность: 01:25:18

Перевод: Не требуется
Cубтитры: нет
Оригинальная аудиодорожка: русский

Режиссер: Никита Курихин, Леонид Менакер

В ролях:
Вячеслав Гуренков, Геннадий Юхтин, Валерий Погорельцев, Валентинс Скулме, Бруно Оя, Эрвин Абель, Жанис Катлапс, Хейно Мандри, Гунарс Плаценс, Олев Тинн, Янис Юров...
Полный список актёров

Описание:
В основу фильма положен подлинный факт.
Действия происходят в глубоком тылу Германии. Для улучшения характеристик противотанковых орудий, немцы использовали захваченные трофейные танки Красной Армии в качестве «живых» мишеней. Экипажи машин укомплектовывали военнопленными танкистами и гражданскими лицами из концлагерей. Фильм повествует о бегстве из плена одного из таких экипажей на танке Т-34. Вырвавшись из плена, они часа два мчались по немецкой территории, пока не подъехали к мосту, где в это время шла группа ребятишек-школьников. Перед экипажем возникла дилемма: раздавить детей гусеницами своего танка и тем самым проложить себе дорогу на другой берег, продолжив бегство, или сдаться в плен! Герои выбрали последнее. Но подоспевшие к месту немецкие артиллерийские расчеты изрешитили танк, оставшегося полуживого командира вечером повесили на орудийном стволе танка. В неравной схватке герои погибают. К такому подвигу нельзя быть равнодушным!
Об этом сообщила в своей газете "Комсомольская Правда" в 1964 году, озаглавив статью "Подвиг капитана".
Вечером, на кухне режиссер Леонид Менакер, попивая чай, просматривал очередной ее номер, где и узнал об этом. Вот так и возникла идея снять этот фильм.
"...хороший фильм можно снять и по газетной публикации..." - любил говорить Л.Менакер

Источник: DVB
Качество видео: SATRip
Формат видео: AVI

Видео: 640x480 (4:3), 25 fps, XviD ~ 1081 kbps avg, 0.141 bit/pixel
Аудио: 48 kHz, MP3 2.0, 128 kbps

Раздача от:
Общее
Полное имя : Zhavoronok.1965.SATRip-745_[New-team]_by_AVP_Studio.avi
Формат : AVI
Формат/Информация : Audio Video Interleave
Размер файла : 744 Мбайт
Продолжительность : 1 ч. 25 м.
Общий поток : 1219 Кбит/сек
Программа кодирования : VirtualDubMod 1.5.10.3 | www.virtualdub-fr.org || (build 2550/release)
Библиотека кодирования : VirtualDubMod build 2550/release

Видео
Идентификатор : 0
Формат : MPEG-4 Visual
Профиль формата : Advanced Simple@L5
Параметр BVOP формата : 1
Параметр QPel формата : Нет
Параметр GMC формата : Без точки перехода
Параметр матрицы формата : Выборочная
Идентификатор кодека : XVID
Идентификатор кодека/Подсказка : XviD
Продолжительность : 1 ч. 25 м.
Битрейт : 1081 Кбит/сек
Ширина : 640 пикселей
Высота : 480 пикселей
Соотношение сторон : 4:3
Частота кадров : 25,000 кадров/сек
Цветовое пространство : YUV
Субдискретизация насыщенности : 4:2:0
Битовая глубина : 8 бит
Тип развёртки : Прогрессивная
Метод сжатия : С потерями
Бит/(Пиксели*Кадры) : 0.141
Размер потока : 660 Мбайт (89%)
Библиотека кодирования : XviD 73

Аудио
Идентификатор : 1
Формат : MPEG Audio
Версия формата : Version 1
Профиль формата : Layer 3
Идентификатор кодека : 55
Идентификатор кодека/Подсказка : MP3
Продолжительность : 1 ч. 25 м.
Вид битрейта : Постоянный
Битрейт : 128 Кбит/сек
Каналы : 2 канала
Частота : 48,0 КГц
Метод сжатия : С потерями
Размер потока : 78,1 Мбайт (10%)
Выравнивание : Соединение по промежуткам
Продолжительность промежутка : 40 мс. (1,00 видеокадр)
Время предзагрузки промежутка : 504 мс.
Библиотека кодирования : LAME3.99r
Настройки программы : -m s -V 4 -q 2 -lowpass 17 -b 128
pb.wtf



Скачать Жаворонок через торрент http://i4.imageban.ru/out/2015/11/07/0e9d1e3e6993bc61044c9f47751cb31f.png Скачать фильм Жаворонок через торрент бесплантно в хорошем качестве Описание:В основу фильма положен подлинный факт.Действия происходят в глубоком тылу Германии. Для улучшения характеристик противотанковых ... 5 10 1
Торрент: Зарегистрирован [2015-11-07 15:52] · скачан: 29 раз
Статус: √ проверено
Размер: 744 MB
Как cкачать? Как скачать Жаворонок через торрент | qTorrent

% Раздел Тема Автор DL S | L
Металл (mp3) [ 82 MB ] Рви Меха! - Жаворонок 2017 / MP3 / 320 kbps / Folk Metal Яйцеслав Скачать
1 | 0
Кино СССР [ 1.09 GB ] Жаворонок [1964 СССР военный SATRip-AVC от AVP Studio] AVP Studio Скачать
1 | 0
Кино СССР [ 1.09 GB ] Жаворонок [1964 СССР военный SATRip от AVP Studio] AVP Studio Скачать
1 | 0


>> Регистрируемся здесь <<






Отзывы и комментарии о схеме читаем и пишем здесь: ---> Отзывы и комментарии о схеме

Новые благодарочки в телеграм довольных пользователей:
скриншот   скриншот   скриншот   скриншот   скриншот
    Дорогой пользователь! Огромная просьба, поблагодарите релизера, оцените раздачу и оставьте свои комментарий, если Вы скачали Жаворонок через торрент бесплатно! Внесите свою лепту в развитие PiratBit!
    Комментировать посты могут только пользователи прошедшие не сложную регистрацию
    Показать сообщения:    

    Жаворонок через торрент
    Скачать бесплатно Жаворонок
    Жаворонок скачать торрент
    Жаворонок смотреть онлайн
    Cкачать фильм Жаворонок бесплатно
    Жаворонок скачать торрент в хорошем качестве
    Жаворонок смотреть онлайн бесплатно в хорошем качестве


    Вы не можете начинать темы
    Вы не можете отвечать на сообщения
    Вы не можете редактировать свои сообщения
    Вы не можете удалять свои сообщения
    Вы не можете голосовать в опросах
    Вы не можете прикреплять файлы к сообщениям
    Вы можете скачивать файлы