Ссылка на приватное зеркало нашего сайта всего за 1$. Внимание количество ограничено!!!

2 сезон

iTunes

1 сезон

1

2 сезон

2 сезон

iTunes

1 сезон

RePack

30

Ultimate

ВАЖНО

ИГРА 18+

pack

RePack

MK11
pack

Забери бонус

RePack

jed

!!Акция!!

Alien_Rage

RePack

fifa19

RePack

Assassins Creed: Odyssey

RePack

NEED FOR SPEED™ PAYBACK

4 сезон

9 сезон

Бесстыжие 9 сезон

Все сериалы

все сериалы на PB.wtf

RePack

FAR CRY 5
  

Человек в высоком замке / The Man in the High Castle / Сезон: 1 / Серии: 1-10 (10) (Дэвид Семел) [2015, фантастика, триллер, драма, WEBRip 720p] [MVO] (AlexFilm) pb.wtf

Человек в высоком замке через торрент pb.wtf

Размер: 21.3 GB | Добавлен: 4 года 10 мес. назад | Торрент скачан:332 раза
Скачать  

07-11-2015 21:47 Человек в высоком замке Скачать торрент  

Человек в высоком замке / The Man in the High Castle
Год выпуска: 2015
Страна: США
Жанр: фантастика, триллер, драма
Продолжительность: 10x ~ 01:00:00
Перевод: Профессиональный (многоголосый, закадровый) - AlexFilm
Cубтитры: нет

Режиссер: Дэвид Семел / David Semel

В ролях: Алекса Давалос, Руперт Эванс, Люк Клеинтенк, DJ Куаллс, Джоэль де ла Фуэнте, Кэри-Хироюки Тагава, Руфус Сьюэлл, Майкл Рисполи, Джеффри Блейк, Бернхард Форхер Германия и Япония выиграли Вторую мировую. Америка разделена пополам между победителями, но, разумеется, спустя много лет после поражения (действие разворачивается в 1962-м) сознательные американцы организуют глубоко засекреченное подполье. Занимаются повстанцы в основном распространением странной кинохроники, на которой показана победа в войне союзнических войск. Именно с этими пленками в руках в нейтральную зону между двумя Америками отправляются Джо и Джулс — юноша и девушка, пробующие свои силы в борьбе с режимом.


Релиз --

Качество видео: WEBRip [720p]
Формат видео: MKV
Видео: 1280x720 (16:9), 23.976 fps, MPEG-4 AVC ~4200-6200 kbps avg
Аудио: 48 kHz, AC3 Dolby Digital, 2.0 (L,R) ch, ~192.00 kbps | ALEXFILM
Аудио: 48 kHz, AC3 Dolby Digital, 2.0 (L,R) ch, ~192.00 kbps | original
Перевод: Константин Кривоногов
Монтаж и сведение звука: Михаил Шорыгин
Роли озвучивали:
Таисия Тришина
Наталья Ланц
Петр Гланц
Михаил Суслов
Роман Сопко
Валерий Смекалов
Михаил Шорыгин
Формат : Matroska
Версия формата : Version 4 / Version 2
Размер файла : 2,40 Гбайт
Продолжительность : 59 м.
Общий поток : 5733 Кбит/сек
Название фильма : The Man in the High Castle 1x01 @ AlexFilm
Дата кодирования : UTC 2015-12-12 09:54:51
Программа кодирования : mkvmerge v7.1.0 ('Good Love') 64bit built on Jul 27 2014 13:06:55
Библиотека кодирования : libebml v1.3.0 + libmatroska v1.4.1

Видео
Идентификатор : 1
Формат : AVC
Формат/Информация : Advanced Video Codec
Профиль формата : High@L4.1
Параметр CABAC формата : Да
Параметр ReFrames формата : 9 кадров
Идентификатор кодека : V_MPEG4/ISO/AVC
Продолжительность : 59 м.
Битрейт : 5234 Кбит/сек
Ширина : 1280 пикселей
Высота : 720 пикселей
Соотношение сторон : 16:9
Режим частоты кадров : Постоянный
Частота кадров : 23,976 кадра/сек
Цветовое пространство : YUV
Субдискретизация насыщенности : 4:2:0
Битовая глубина : 8 бит
Тип развёртки : Прогрессивная
Бит/(Пиксели*Кадры) : 0.237
Размер потока : 2,19 Гбайт (91%)
Библиотека кодирования : x264 core 148 r2638 7599210
Настройки программы : cabac=1 / ref=9 / deblock=1:-3:-3 / analyse=0x3:0x133 / me=umh / subme=11 / psy=1 / psy_rd=1.00:0.05 / mixed_ref=1 / me_range=48 / chroma_me=1 / trellis=2 / 8x8dct=1 / cqm=0 / deadzone=21,11 / fast_pskip=0 / chroma_qp_offset=-3 / threads=12 / lookahead_threads=2 / sliced_threads=0 / nr=0 / decimate=1 / interlaced=0 / bluray_compat=0 / constrained_intra=0 / bframes=8 / b_pyramid=2 / b_adapt=2 / b_bias=0 / direct=3 / weightb=1 / open_gop=0 / weightp=2 / keyint=240 / keyint_min=24 / scenecut=40 / intra_refresh=0 / rc=crf / mbtree=0 / crf=16.5 / qcomp=0.80 / qpmin=0 / qpmax=69 / qpstep=4 / ip_ratio=1.40 / pb_ratio=1.30 / aq=3:1.00
Язык : English
Default : Да
Forced : Нет

Аудио #1
Идентификатор : 2
Формат : AC-3
Формат/Информация : Audio Coding 3
Расширение режима : CM (complete main)
Параметр Endianness формата : Big
Идентификатор кодека : A_AC3
Продолжительность : 59 м.
Вид битрейта : Постоянный
Битрейт : 192 Кбит/сек
Каналы : 2 канала
Расположение каналов : Front: L R
Частота : 48,0 КГц
Метод сжатия : С потерями
Размер потока : 82,3 Мбайт (3%)
Заголовок : DD2.0 AlexFilm
Язык : Russian
Default : Да
Forced : Нет

Аудио #2
Идентификатор : 3
Формат : AC-3
Формат/Информация : Audio Coding 3
Расширение режима : CM (complete main)
Параметр Endianness формата : Big
Идентификатор кодека : A_AC3
Продолжительность : 59 м.
Вид битрейта : Постоянный
Битрейт : 192 Кбит/сек
Каналы : 2 канала
Расположение каналов : Front: L R
Частота : 48,0 КГц
Метод сжатия : С потерями
Размер потока : 82,3 Мбайт (3%)
Заголовок : DD2.0 Original
Язык : English
Default : Нет
Forced : Нет[/code]
pb.wtf



Скачать Человек в высоком замке через торрент http://i66.fastpic.ru/big/2015/1107/22/c07146bd127ab78f74019a5d32dd4622.png Скачать фильм Человек в высоком замке через торрент бесплантно в хорошем качестве В ролях: Алекса Давалос, Руперт Эванс, Люк Клеинтенк, DJ Куаллс, Джоэль де ла Фуэнте, Кэри-Хироюки Тагава, Руфус Сьюэлл, Майкл Рисполи, ... 9.2 10 11
Торрент: Зарегистрирован [2016-01-10 09:13] · скачан: 332 раз
Статус: √ проверено
Размер: 21.3 GB
Как cкачать? Как скачать Человек в высоком замке через торрент | qTorrent

% Раздел Тема Автор DL S | L
Зарубежные сериалы [ 6.95 GB ] Человек в высоком замке / The Man in the High Castle / Сезон: 4 / Серии: 1-10 из 10 [2019 WEB-DLRip] [MVO] killermax2013 Скачать
1 | 0
Фильмы с украинским озвучиванием [ 59.42 GB ] Человек в высоком замке / The Man in the High Castle / Сезон: 4 / Серии: 1-10 из 10 [2019 WEBRip 1080p] [Ukr MVO] killermax2013 Скачать
1 | 0
Зарубежные сериалы [ 34.63 GB ] Человек в высоком замке / The Man in the High Castle / Сезон: 4 / Серии: 1-10 из 10 [2019 WEB-DL 1080p] MVO [Jaskier] bober100 Скачать
1 | 0
Зарубежные сериалы [ 16.97 GB ] Человек в высоком замке / The Man in the High Castle / Сезон: 4 / Серии: 1-10 из 10 [2019 WEB-DL 720p] MVO [Jaskier] bober100 Скачать
1 | 0
Зарубежные сериалы [ 5.98 GB ] Человек в высоком замке / The Man in the High Castle / Сезон: 4 / Серии: 1-10 из 10 [2019 WEB-DLRip] MVO [Jaskier] bober100 Скачать
1 | 0
Зарубежные сериалы [ 7.08 GB ] Человек в высоком замке / The Man in the High Castle / Сезон: 4 / Серии: 1-10 из 10 [2019 WEBRip] [MVO] killermax2013 Скачать
1 | 0
Зарубежные сериалы [ 16.98 GB ] Человек в высоком замке / The Man in the High Castle / Сезон: 4 / Серии: 1-10 из 10 [2019 WEBRip 720p] [MVO] killermax2013 Скачать
1 | 0


Последний раз редактировалось: killermax2013 (2016-01-10 09:13), всего редактировалось 1 раз

28-11-2019 20:33  

Отключить всю рекламу на сайте

10-01-2016 07:35 Человек в высоком замке Скачать торрент  

Цитата:

Человек в высоком замке / The Man in the High Castle / Сезон: 1 / Серии: 1-2 (12) (Дэвид Семел) [2015, фантастика, триллер, драма, WEBRip 720p] [MVO] (OMSKBIRD records)

Виде: отличное!
Аудио: ???
Минус 1 бал за семпл без речи!И вообще мало звуков ! Невозможно выяснить качество перевода!pb.wtf



10-01-2016 09:15 Человек в высоком замке Скачать торрент  

Торент перезалит.Заменено на релиз от AlexFilm, полный сезонpb.wtf



13-01-2016 10:50 Человек в высоком замке Скачать торрент  

Очень хороший, серьезный сериал. Таких сейчас мало. С визуальной точки зрения также прекрасно выполнен, полноценный фильм, не картонная поделка.pb.wtf



    Дорогой пользователь! Огромная просьба, поблагодарите релизера, оцените раздачу и оставьте свои комментарий, если Вы скачали Человек в высоком замке через торрент бесплатно! Внесите свою лепту в развитие PiratBit!
    Комментировать посты могут только пользователи прошедшие не сложную регистрацию
    Показать сообщения:    

    Человек в высоком замке через торрент
    Скачать бесплатно Человек в высоком замке
    Человек в высоком замке скачать торрент
    Человек в высоком замке смотреть онлайн
    Cкачать фильм Человек в высоком замке бесплатно
    Человек в высоком замке скачать торрент в хорошем качестве
    Человек в высоком замке смотреть онлайн бесплатно в хорошем качестве


    Вы не можете начинать темы
    Вы не можете отвечать на сообщения
    Вы не можете редактировать свои сообщения
    Вы не можете удалять свои сообщения
    Вы не можете голосовать в опросах
    Вы не можете прикреплять файлы к сообщениям
    Вы можете скачивать файлы