Ссылка на приватное зеркало нашего сайта всего за 1$. Внимание количество ограничено!!!

2 сезон

iTunes

1 сезон

1

2 сезон

2 сезон

iTunes

1 сезон

RePack

30

Ultimate

ВАЖНО

ИГРА 18+

pack

RePack

MK11
pack

Забери бонус

RePack

jed

!!Акция!!

Alien_Rage

RePack

fifa19

RePack

Assassins Creed: Odyssey

RePack

NEED FOR SPEED™ PAYBACK

4 сезон

9 сезон

Бесстыжие 9 сезон

Все сериалы

все сериалы на PB.wtf

RePack

FAR CRY 5
  

Демоны Да Винчи / Da Vinci's Demons / Сезон: 3 / Серии 1-10 из 10 (Питер Хор / Peter Hoar, Майкл Дж. Бассетт / Michael J. Bassett, Дэвид С. Гойер / David S. Goyer) [2015, США, фэнтези, драма, детектив, HDTVRip] MVO [AlexFilm] pb.wtf

Демоны Да Винчи через торрент pb.wtf

Размер: 6.26 GB | Добавлен: 5 лет назад | Торрент скачан:199 раз
Скачать  

08-11-2015 02:11 Демоны Да Винчи Скачать торрент  

Демоны Да Винчи / Da Vinci's Demons
«История это ложь»


  • Год выпуска: 2015
  • Страна: США
  • Жанр: фэнтези, драма, детектив, приключения, история
  • Продолжительность: 00:54:21 (Серия)
  • Перевод: Профессиональный многоголосый закадровый [AlexFilm]

  • Режиссер: Питер Хор / Peter Hoar, Майкл Дж. Бассетт / Michael J. Bassett, Дэвид С. Гойер / David S. Goyer
  • В ролях:

    Том Райли (Leonardo Da Vinci), Грегг Чиллин (Zoroaster), Эрос Влахос (Nico), Лора Хэддок (Lucrezia Donati), Блейк Ритсон (Girolamo Riario), Эллиот Кауэн (Lorenzo Medici), Гера Хилмарсдоттир (Vanessa), Джеймс Фолкнер (Pope Sixtus IV), Лара Пулвер (Clarice Orsini), Дэвид Скофилд (Piero da Vinci), Йен Пири (Captain Dragonetti), Александр Сиддиг (Al-Rahim)


  • В мире, где мысль и вера находятся под контролем, один человек борется за то, чтобы сделать знания доступными для всех.
    Не рассказанная история трагичной жизни Леонардо Да Винчи раскрывает портрет молодого человека, которого мучает дар гения. Он - еретик, жаждущий раскрыть ложь религии. Бунтарь, стремящийся низвергнуть элитарное общество. Незаконнорожденный сын, требующий от своего отца признания его прав.
    Он оказывается посреди разразившегося урагана страстей, который спал веками. Внутри конфликта между правдой и ложью, религией и интеллектом, прошлым и будущим. Его стремления используются против него противоборствующими силами того времени, вовлекая его в соблазнительную игру, в которой те, кто презирает его ум, нуждаются в нём больше всего.
    Леонардо должен вступить в конфронтацию с теми, кто использует историю, чтобы скрыть истину. Вооружённый лишь собственным гением Да Винчи в одиночку противостоит тьме как внутри, так и снаружи.
    Перед лицом неопределённости будущего его поход за знаниями едва не становится для него погибелью, когда он переходит за грань своего здравомыслия. Да Винчи, словно в омут с головой, уходит в собственные гениальные идеи, воплотив которые, становится необоримой силой, вытаскивающей из темноты и поворачивающей к свету целую эпоху.
    Его история становится зеркалом для нашего мира, зовущее всех нас на бой за Свободное Будущее.
  • Рейтинг:



  • Качество: HDTVRip
  • Формат: :AVI
  • Видео кодек: XviD
  • Аудио кодек: MP3
  • Видео: 720x400 (16:9), 1402 kbps, 23,976 fps, 0,203 bpp
  • Аудио №1: Русский 2.0 / 48 kHz / 128 kbps /
  • Аудио №2: Английский 2.0 / 48 kHz / 128 kbps /
  • Релиз от: GEKADOL

    Код:

    Внимание! Раздача ведётся путём добавления новых серий; при каждом добавлении создаётся новый торрент. Чтобы начать докачку новой серии, пользователям необходимо сделать следующее:
    (1) остановить скачивание,
    (2) удалить старый торрент у себя из клиента (старые серии удалять не надо),
    (3) скачать новый торрент и запустить его у себя в клиенте вместо старого, при этом указать клиенту путь в старую папку куда и должно происходить скачивание новых серий.
    Ваш клиент при этом должен произвести хеширование (проверку) старой папки (если не производит сам - помогите ему сделать это), и будет докачивать только те серии которых у вас ещё нет. Старые серии при этом не удаляются, а продолжают раздаваться!
    Eсли вы уже удалили старые серии, то предотвратить повторную закачку старых серий можно, отжав галочку в соответствующих местах при запуске нового торрента. По возможности, желательно не удалять старые серии как можно дольше чтобы релизёр не столько продолжал раздавать старые серии, а смог сконцентрироваться на новых.


    Код:

    General
    Complete name                            : H:\Da Vinci's Demons - Season 3 (AlexFilm) HDTVRip\Da.Vinci's.Demons.s03e06.HDTVRip.Rus.Eng.AlexFilm.avi
    Format                                   : AVI
    Format/Info                              : Audio Video Interleave
    File size                                : 650 MiB
    Duration                                 : 54mn 21s
    Overall bit rate                         : 1 673 Kbps
    Movie name                               : Da Vinci's Demons 3х06 @ AlexFilm
    Writing application                      : VirtualDubMod 1.5.10.2 (build 2540/release)
    Writing library                          : VirtualDubMod build 2540/release

    Video
    ID                                       : 0
    Format                                   : MPEG-4 Visual
    Format profile                           : Advanced Simple@L5
    Format settings, BVOP                    : No
    Format settings, QPel                    : No
    Format settings, GMC                     : No warppoints
    Format settings, Matrix                  : Default (H.263)
    Codec ID                                 : XVID
    Codec ID/Hint                            : XviD
    Duration                                 : 54mn 21s
    Bit rate                                 : 1 403 Kbps
    Width                                    : 720 pixels
    Height                                   : 400 pixels
    Display aspect ratio                     : 16:9
    Frame rate                               : 23.976 fps
    Color space                              : YUV
    Chroma subsampling                       : 4:2:0
    Bit depth                                : 8 bits
    Scan type                                : Progressive
    Compression mode                         : Lossy
    Bits/(Pixel*Frame)                       : 0.203
    Stream size                              : 545 MiB (84%)
    Writing library                          : XviD 73

    Audio #1
    ID                                       : 1
    Format                                   : MPEG Audio
    Format version                           : Version 1
    Format profile                           : Layer 3
    Mode                                     : Joint stereo
    Mode extension                           : MS Stereo
    Codec ID                                 : 55
    Codec ID/Hint                            : MP3
    Duration                                 : 54mn 21s
    Bit rate mode                            : Constant
    Bit rate                                 : 128 Kbps
    Channel(s)                               : 2 channels
    Sampling rate                            : 48.0 KHz
    Compression mode                         : Lossy
    Stream size                              : 49.8 MiB (8%)
    Alignment                                : Aligned on interleaves
    Interleave, duration                     : 42 ms (1.00 video frame)
    Interleave, preload duration             : 504 ms
    Title                                    : Russian (AlexFilm)
    Writing library                          : LAME3.99r
    Encoding settings                        : -m j -V 4 -q 3 -lowpass 18 -b 128

    Audio #2
    ID                                       : 2
    Format                                   : MPEG Audio
    Format version                           : Version 1
    Format profile                           : Layer 3
    Mode                                     : Joint stereo
    Codec ID                                 : 55
    Codec ID/Hint                            : MP3
    Duration                                 : 54mn 21s
    Bit rate mode                            : Constant
    Bit rate                                 : 128 Kbps
    Channel(s)                               : 2 channels
    Sampling rate                            : 48.0 KHz
    Compression mode                         : Lossy
    Stream size                              : 49.8 MiB (8%)
    Alignment                                : Aligned on interleaves
    Interleave, duration                     : 42 ms (1.00 video frame)
    Interleave, preload duration             : 504 ms
    Title                                    : English
    Writing library                          : LAME3.90.3




    Скриншоты:
    скриншот   скриншот   скриншот   скриншот   скриншот  
    скриншот  

    Раздача ведётся путём добавления новых серий. Добавлена 10 серия (11.11.2015).Просьба перекачать торрент файл.

    pb.wtf



  • Скачать Демоны Да Винчи через торрент http://i75.fastpic.ru/big/2015/1108/fd/c2855eb61a005afd1154ac97904188fd.jpg Скачать фильм Демоны Да Винчи через торрент бесплантно в хорошем качестве qw.png В мире, где мысль и вера находятся под контролем, один человек борется за то, чтобы сделать знания доступными для всех. Не ... 9.5 10 10
    Info! Золотая раздача, скачанное не засчитывается.
    Торрент: Зарегистрирован [2015-11-11 01:00] · скачан: 199 раз
    Статус: √ проверено
    Размер: 6.26 GB
    Как cкачать? Как скачать Демоны Да Винчи через торрент | qTorrent

    28-11-2019 20:33  

    Отключить всю рекламу на сайте

      Дорогой пользователь! Огромная просьба, поблагодарите релизера, оцените раздачу и оставьте свои комментарий, если Вы скачали Демоны Да Винчи через торрент бесплатно! Внесите свою лепту в развитие PiratBit!
      Комментировать посты могут только пользователи прошедшие не сложную регистрацию
      Показать сообщения:    

      Демоны Да Винчи через торрент
      Скачать бесплатно Демоны Да Винчи
      Демоны Да Винчи скачать торрент
      Демоны Да Винчи смотреть онлайн
      Cкачать фильм Демоны Да Винчи бесплатно
      Демоны Да Винчи скачать торрент в хорошем качестве
      Демоны Да Винчи смотреть онлайн бесплатно в хорошем качестве


      Вы не можете начинать темы
      Вы не можете отвечать на сообщения
      Вы не можете редактировать свои сообщения
      Вы не можете удалять свои сообщения
      Вы не можете голосовать в опросах
      Вы не можете прикреплять файлы к сообщениям
      Вы можете скачивать файлы