Ссылка на приватное зеркало нашего сайта всего за 1$. Внимание количество ограничено!!!

2 сезон

iTunes

1 сезон

1

2 сезон

2 сезон

iTunes

1 сезон

RePack

30

Новинка

ВАЖНО

ИГРА 18+

pack

RePack

MK11
pack

Забери бонус

RePack

jed

!!Акция!!

Alien_Rage

RePack

fifa19

RePack

Assassins Creed: Odyssey

RePack

NEED FOR SPEED™ PAYBACK

4 сезон

9 сезон

Бесстыжие 9 сезон

Все сериалы

все сериалы на PB.wtf

RePack

FAR CRY 5
  

Супергёрл / Супердевушка / Supergirl / Сезон: 1 / Серии 0-20 из 20 (Глен Винтер / Glen Winter) [2015, США, фантастика, боевик, приключения, WEB-DLRip-AVC) [BaibaKo] pb.wtf

Супергёрл через торрент pb.wtf

Размер: 19.48 GB | Добавлен: 4 года 7 мес. назад | Торрент скачан:26 раз
Скачать  

08-11-2015 04:12 Супергёрл Скачать торрент  


Супергёрл / Супердевушка / Supergirl



  • Год выпуска: 2015
  • Страна: США
  • Жанр: фантастика, боевик, приключения
  • Продолжительность: 00:46:13 (Серия)
  • Перевод: Профессиональный многоголосый закадровый [BaibaKo]

  • Режиссер: Глен Винтер / Glen Winter
  • В ролях:

    Мелисса Бенойст (Supergirl), Дерек Мио (Hayashi), Jaidan Jiron (Female Student #2), Бен Бегли (Tobey), Лаура Бенанти (Alura Zor-El), Мехкад Брукс (James «Jimmy» Olsen), Дин Кэйн (Fred Danvers), Зэйн Эмори (Rick Malverne), Калиста Флокхарт (Cat Grant), Тони Френч (Downtown Pedestrian), Роберт Гант (Zor-El), Дэвид Хэрвуд (Hank Henshaw)

  • Описание:
    В двенадцать лет Кара Зор-Эл была вынуждена покинуть родную планету Криптон. На Земле ее приютила семья Дэнверс. Всю свою земную жизнь она тщательно скрывала свои сверхспособности. Сейчас Каре 24 года, она работает в крупной медийной корпорации помощником руководителя. Никто из ее знакомых не знает о том, кто она на самом деле, и девушку это вполне устраивает. Но однажды появляется новый злодей, и Кара вынуждена вновь учиться управлять своей силой, чтобы противостоять могущественному врагу и спасти мир от разрушения.
  • Рейтинг:



  • Качество: WEB-DLRip-AVC
  • Формат: :MPEG-4
  • Видео кодек: AVC
  • Аудио кодек: AC3
  • Видео: 2380 Кбит/сек, 1024*576 (16:9), в 23,976 кадра/сек, AVC
  • Аудио №1: Русский 384 Кбит/сек, 48,0 КГц, 16 бит, 6 каналов, AC-3 |[BaibaKo]|
  • Аудио №2: Английский 384 Кбит/сек, 48,0 КГц, 16 бит, 6 каналов, AC-3
  • Релиз от: GEKADOL

    Код:

    Внимание! Раздача ведётся путём добавления новых серий; при каждом добавлении создаётся новый торрент. Чтобы начать докачку новой серии, пользователям необходимо сделать следующее:
    (1) остановить скачивание,
    (2) удалить старый торрент у себя из клиента (старые серии удалять не надо),
    (3) скачать новый торрент и запустить его у себя в клиенте вместо старого, при этом указать клиенту путь в старую папку куда и должно происходить скачивание новых серий.
    Ваш клиент при этом должен произвести хеширование (проверку) старой папки (если не производит сам - помогите ему сделать это), и будет докачивать только те серии которых у вас ещё нет. Старые серии при этом не удаляются, а продолжают раздаваться!
    Eсли вы уже удалили старые серии, то предотвратить повторную закачку старых серий можно, отжав галочку в соответствующих местах при запуске нового торрента. По возможности, желательно не удалять старые серии как можно дольше чтобы релизёр не столько продолжал раздавать старые серии, а смог сконцентрироваться на новых.


    Код:

    Общее
    Полное имя                               : H:\Супергёрл\Supergirl.s01e02.WEB-DLRip-AVC.Rus.Eng.BaibaKo.tv.mp4
    Формат                                   : MPEG-4
    Профиль формата                          : Base Media
    Идентификатор кодека                     : isom
    Размер файла                             : 992 Мбайт
    Продолжительность                        : 43 м.
    Общий поток                              : 3153 Кбит/сек
    Программа кодирования                    : XviD4PSP 7.0.163
    encoding_info                            : MATROSKA / WEBM > MP4 / H264 > X264 CBR 2500kbps HQ1 / AC3 > AC3 CBR 384kbps / AC3 > AC3 CBR 384kbps

    Видео
    Идентификатор                            : 1
    Формат                                   : AVC
    Формат/Информация                        : Advanced Video Codec
    Профиль формата                          : High@L3.1
    Параметр CABAC формата                   : Да
    Параметр ReFrames формата                : 4 кадра
    Идентификатор кодека                     : avc1
    Идентификатор кодека/Информация          : Advanced Video Coding
    Продолжительность                        : 43 м.
    Битрейт                                  : 2380 Кбит/сек
    Номинальный битрейт                      : 2500 Кбит/сек
    Ширина                                   : 1024 пикселя
    Высота                                   : 576 пикселей
    Соотношение сторон                       : 16:9
    Режим частоты кадров                     : Постоянный
    Частота кадров                           : 23,976 кадра/сек
    Цветовое пространство                    : YUV
    Субдискретизация насыщенности            : 4:2:0
    Битовая глубина                          : 8 бит
    Тип развёртки                            : Прогрессивная
    Бит/(Пиксели*Кадры)                      : 0.168
    Размер потока                            : 749 Мбайт (75%)
    Библиотека кодирования                   : x264 core 148 r2579M 73ae2d1
    Настройки программы                      : cabac=1 / ref=3 / deblock=1:-1:-1 / analyse=0x3:0x133 / me=hex / subme=7 / psy=1 / psy_rd=1,00:0,20 / mixed_ref=1 / me_range=16 / chroma_me=1 / trellis=1 / 8x8dct=1 / cqm=0 / deadzone=21,11 / fast_pskip=1 / chroma_qp_offset=-3 / threads=6 / lookahead_threads=1 / sliced_threads=0 / nr=0 / decimate=1 / interlaced=0 / bluray_compat=0 / constrained_intra=0 / bframes=3 / b_pyramid=2 / b_adapt=2 / b_bias=0 / direct=3 / weightb=1 / open_gop=0 / weightp=2 / keyint=230 / keyint_min=23 / scenecut=40 / intra_refresh=0 / rc_lookahead=40 / rc=cbr / mbtree=1 / bitrate=2500 / ratetol=1,0 / qcomp=0,60 / qpmin=0 / qpmax=69 / qpstep=4 / vbv_maxrate=2500 / vbv_bufsize=2500 / nal_hrd=none / filler=0 / ip_ratio=1,40 / aq=1:1,00
    Цветовой диапазон                        : Limited
    Основные цвета                           : BT.709
    Характеристики трансфера                 : BT.709
    Коэффициенты матрицы                     : BT.709

    Аудио #1
    Идентификатор                            : 2
    Формат                                   : AC-3
    Формат/Информация                        : Audio Coding 3
    Расширение режима                        : CM (complete main)
    Параметр Endianness формата              : Big
    Идентификатор кодека                     : ac-3
    Продолжительность                        : 43 м.
    Вид битрейта                             : Постоянный
    Битрейт                                  : 384 Кбит/сек
    Каналы                                   : 6 каналов
    Расположение каналов                     : Front: L C R, Side: L R, LFE
    Частота                                  : 48,0 КГц
    Битовая глубина                          : 16 бит
    Метод сжатия                             : С потерями
    Размер потока                            : 121 Мбайт (12%)
    Язык                                     : Russian

    Аудио #2
    Идентификатор                            : 3
    Формат                                   : AC-3
    Формат/Информация                        : Audio Coding 3
    Расширение режима                        : CM (complete main)
    Параметр Endianness формата              : Big
    Идентификатор кодека                     : ac-3
    Продолжительность                        : 43 м.
    Вид битрейта                             : Постоянный
    Битрейт                                  : 384 Кбит/сек
    Каналы                                   : 6 каналов
    Расположение каналов                     : Front: L C R, Side: L R, LFE
    Частота                                  : 48,0 КГц
    Битовая глубина                          : 16 бит
    Метод сжатия                             : С потерями
    Размер потока                            : 121 Мбайт (12%)
    Язык                                     : English




    Скриншоты:
    скриншот   скриншот   скриншот   скриншот   скриншот   скриншот   скриншот  
    скриншот  

    Раздача ведётся путём добавления новых серий. Добавлена 20 серия (20.04.2016).Просьба перекачать торрент файл.

    pb.wtf



  • Скачать Супергёрл через торрент http://pic1.kartinco.top/images/10/us3z7.jpg Скачать фильм Супергёрл через торрент бесплантно в хорошем качестве Описание: В двенадцать лет Кара Зор-Эл была вынуждена покинуть родную планету Криптон. На Земле ее приютила семья Дэнверс. Всю свою земную ... 8.9 10 34
    Info! Золотая раздача, скачанное не засчитывается.
    Торрент: Зарегистрирован [2016-04-20 00:13] · скачан: 26 раз
    Статус: √ проверено
    Размер: 19.48 GB
    Как cкачать? Как скачать Супергёрл через торрент | qTorrent



    Последний раз редактировалось: GEKADOL (2016-04-20 00:13), всего редактировалось 19 раз(а)

    28-11-2019 20:33  

    Отключить всю рекламу на сайте

    08-11-2015 06:15 Супергёрл Скачать торрент  

    а зачем в раздаче первая серия 2 раза ? я понимаю, что написан, что второй вариант PROPER, но зачем тогда включать не PROPER версию ? или там всетаки нулевая ? а не первая (хотя название файлов говорит что первая 2 раза)pb.wtf



    08-11-2015 06:52 Супергёрл Скачать торрент  

    Jeck2000 писал(а):

    а зачем в раздаче первая серия 2 раза ? я понимаю, что написан, что второй вариант PROPER, но зачем тогда включать не PROPER версию ? или там всетаки нулевая ? а не первая (хотя название файлов говорит что первая 2 раза)

    0.Пилот (предпоказ)
    1.Пилот (эфирный вариант, вырезаны несколько незначительных фраз)
    2.Вместе сильнее
    Как то так)) Разница примерно в 1 минуту, вам выбирать какую смотреть) pb.wtf



    18-11-2015 09:15 Супергёрл Скачать торрент  

    Та же странная арифметика как и у Халфы. 1, 2, 3, 5, rofl Куда четвертую серию дел???? :сonn:pb.wtf



    18-11-2015 09:44 Супергёрл Скачать торрент  

    Наверное если бы был сериал супердедушка- я бы глянул. старичек со сверхспособностями круто ведь?pb.wtf



    18-11-2015 09:53 Супергёрл Скачать торрент  

    LeeH@N писал(а):

    Та же странная арифметика как и у Халфы. 1, 2, 3, 5, rofl Куда четвертую серию дел???? :сonn:

    4 серия перенесена на неделю позже из-за терактов в Париже. Вместо неё была показана 5 серия. pb.wtf



    26-11-2015 12:46 Супергёрл Скачать торрент  

    Вот и 4))pb.wtf



    26-11-2015 15:20 Супергёрл Скачать торрент  

    Окончательно запутался с этим сериалом... 5-ую(4-ую без пилота) посмотрел ещё 18-го января.pb.wtf



    19-12-2015 13:35 Супергёрл Скачать торрент  

    DeN72 писал(а):

    Окончательно запутался с этим сериалом... 5-ую(4-ую без пилота) посмотрел ещё 18-го января.

    В будущее что ли летал pb.wtf



    22-01-2016 07:13 Супергёрл Скачать торрент  

    А где скорость? По нулям, обидно, дайте хоть 2 серии глянуть (((pb.wtf



    19-02-2016 14:41 Супергёрл Скачать торрент  

    видимо всюс корость супергерл выкачалаpb.wtf



    20-02-2016 04:47 Супергёрл Скачать торрент  

    Для поклонников Флеша(на мой взгляд),норм.сериальчик жду новые серии.pb.wtf



    19-03-2016 02:55 Супергёрл Скачать торрент  

    для эмансипированных баб...pb.wtf



    19-10-2016 09:12 Супергёрл Скачать торрент  

    и тут нету сидовpb.wtf



      Дорогой пользователь! Огромная просьба, поблагодарите релизера, оцените раздачу и оставьте свои комментарий, если Вы скачали Супергёрл через торрент бесплатно! Внесите свою лепту в развитие PiratBit!
      Комментировать посты могут только пользователи прошедшие не сложную регистрацию
      Показать сообщения:    

      Супергёрл через торрент
      Скачать бесплатно Супергёрл
      Супергёрл скачать торрент
      Супергёрл смотреть онлайн
      Cкачать фильм Супергёрл бесплатно
      Супергёрл скачать торрент в хорошем качестве
      Супергёрл смотреть онлайн бесплатно в хорошем качестве


      Вы не можете начинать темы
      Вы не можете отвечать на сообщения
      Вы не можете редактировать свои сообщения
      Вы не можете удалять свои сообщения
      Вы не можете голосовать в опросах
      Вы не можете прикреплять файлы к сообщениям
      Вы можете скачивать файлы