Ссылка на приватное зеркало всего за 1$. Внимание количество ограничено!!!

iTunes

iTunes

iTunes

1

iTunes

iTunes

iTunes

iTunes

iTunes

30
pack

Новость дня

ВАЖНО

!!Акция!!

Alien_RageХит недели

RePack

Resident Evil 21

ИГРА 18+

pack

RePack

jed

!!Акция!!

Alien_Rage

RePack

fifa19

RePack

Assassins Creed: Odyssey

RePack

NEED FOR SPEED™ PAYBACK

4 сезон

9 сезон

Бесстыжие 9 сезон

Все сериалы

все сериалы на PB.wtf

RePack

FAR CRY 5
  

Три (Павел Хвалеев) [2015, ужасы, триллер, драма, HDRip] pb.wtf

Три через торрент pb.wtf

Размер: 1.36 GB | Добавлен: 4 года 6 мес. назад | Торрент скачан:324 раза
Скачать  

08-11-2015 15:36 Три Скачать торрент  

Три«Чем ближе ко дну океана, тем он темнее»

  • Год выхода: 2015
  • Жанр: ужасы, триллер, драма
  • Страна: Германия, Россия
  • Продолжительность: 01:20:25
  • Перевод: Не требуется
  • Режиссер: Павел Хвалеев
  • В ролях:

    Полина Давыдова, Евгений Гагарин, Любовь Игнатушко


  • В маленький европейский городок, в котором живут сёстры Айя и Мирра, пришла неизвестная болезнь, которая унесла жизни многих горожан. После смерти мамы заболевает младшая Мирра. Понимая, что традиционная медицина бессильна перед болезнью сестры, Айя обращается за помощью к близкому другу семьи, приходскому священнику отцу Герману. В его доме Айя случайно находит книги далёкие от традиционной религии.
    Она узнаёт, что только проникнув в больное подсознание Мирры и отыскав истинную причину её болезни, она получит шанс на спасение сестры. Айя готова пройти страшный ритуал, погрузиться в недра подсознания и встретиться лицом к лицу с обитающими там демонами. Но сможет ли она справиться с собственным страхом, когда узнает все тайны прошлой жизни сестры?

  • Качество: HDRip
  • Формат: AVI
  • Видео кодек: XviD
  • Аудио кодек: AC3
  • Видео: XviD, 720x304 (2.35:1), 1874 kbps, 24 fps, 0,357 bpp
  • Аудио: AC3 / 2.0 / 48 kHz / 448 kbps / 16 bit

    Код:

    General
    Complete name                            : H:\Tr1.2015.O.HDRip.1400Mb.avi
    Format                                   : AVI
    Format/Info                              : Audio Video Interleave
    File size                                : 1.36 GiB
    Duration                                 : 1h 20mn
    Overall bit rate                         : 2 427 Kbps
    Writing application                      : VirtualDubMod 1.5.10.2 (build 2540/release)
    Writing library                          : VirtualDubMod build 2540/release

    Video
    ID                                       : 0
    Format                                   : MPEG-4 Visual
    Format profile                           : Advanced Simple@L5
    Format settings, BVOP                    : 2
    Format settings, QPel                    : No
    Format settings, GMC                     : No warppoints
    Format settings, Matrix                  : Default (MPEG)
    Codec ID                                 : XVID
    Codec ID/Hint                            : XviD
    Duration                                 : 1h 20mn
    Bit rate                                 : 1 874 Kbps
    Width                                    : 720 pixels
    Height                                   : 304 pixels
    Display aspect ratio                     : 2.35:1
    Frame rate                               : 24.000 fps
    Color space                              : YUV
    Chroma subsampling                       : 4:2:0
    Bit depth                                : 8 bits
    Scan type                                : Progressive
    Compression mode                         : Lossy
    Bits/(Pixel*Frame)                       : 0.357
    Stream size                              : 1.05 GiB (77%)
    Writing library                          : XviD 1.2.1 (UTC 2008-12-04)

    Audio
    ID                                       : 1
    Format                                   : AC-3
    Format/Info                              : Audio Coding 3
    Mode extension                           : CM (complete main)
    Codec ID                                 : 2000
    Duration                                 : 1h 20mn
    Bit rate mode                            : Constant
    Bit rate                                 : 448 Kbps
    Channel(s)                               : 2 channels
    Channel positions                        : Front: L R
    Sampling rate                            : 48.0 KHz
    Bit depth                                : 16 bits
    Compression mode                         : Lossy
    Stream size                              : 258 MiB (18%)
    Alignment                                : Split accross interleaves

    Скриншоты:


    © Оформление by -Lexx- pb.wtf



  • Скачать Три через торрент http://pic.kartinco.top/images/6/stazu.jpg Скачать фильм Три через торрент бесплантно в хорошем качестве qw.png В маленький европейский городок, в котором живут сёстры Айя и Мирра, пришла неизвестная болезнь, которая унесла жизни многих ... 8.4 10 11
    Торрент: Зарегистрирован [2015-11-08 15:36] · скачан: 324 раз
    Статус: √ проверено
    Размер: 1.36 GB
    Как cкачать? Как скачать Три через торрент | qTorrent

    % Раздел Тема Автор DL S | L
    Фильмы 2006-2008 [ 2.19 GB ] Невероятный Халк / The Incredible Hulk [2008 DVDRip MVO] Расширенная версия / Extended Cut DEVI Скачать
    2 | 0
    Наши сериалы [ 5.48 GB ] Ликвидация [2007 DVDRip] DEVI Скачать
    1 | 0
    Фильмы 2009 [ 1.36 GB ] Эффект бабочки 3: Откровение / Butterfly Effect 3: Revelation [2009 DVDRip] paul08 Скачать
    1 | 0
    Научно-популярные фильмы [ 672 MB ] Плесень [2008 документальный DVDRip] paul08 Скачать
    1 | 0
    Фильмы 2009 [ 1.36 GB ] Другой мир: Восстание ликанов / Underworld: Rise of the Lycans [2009 DVDRip] paul08 Скачать
    1 | 0
    Эротические игры [ 4.09 GB ] Стрип Покер - Страсть и карты / All Star Strip Poker satir_ua Скачать
    1 | 0
    Фильмы 2009 [ 1.37 GB ] 13-й район: Ультиматум / Banlieue 13 Ultimatum [2009 DVDRip] DEVI Скачать
    1 | 0

    28-11-2019 20:33  

    Отключить всю рекламу на сайте

    08-11-2015 16:03 Три Скачать торрент  

    Актерский состав радует! Ну прям как в "Немецких" фильмах - Она-Он-Она. Только тут ещё и мистика )))))))))pb.wtf



    08-11-2015 16:37 Три Скачать торрент  

    А трейлер то, впечатлил! Посмотреть думаю, стоит.pb.wtf



    08-11-2015 18:55 Три Скачать торрент  

    Koleso88 писал(а):

    А трейлер то, впечатлил! Посмотреть думаю, стоит.

    Сделано в России - нет не стоит sarcastic ))pb.wtf



    08-11-2015 19:28 Три Скачать торрент  

    Русский недоСайлент Хилл, смысла я впритык не увидел!!! Актеры играют, как лишенные эмоций! Какашка в общем...pb.wtf



      Дорогой пользователь! Огромная просьба, поблагодарите релизера, оцените раздачу и оставьте свои комментарий, если Вы скачали Три через торрент бесплатно! Внесите свою лепту в развитие PiratBit!
      Комментировать посты могут только пользователи прошедшие не сложную регистрацию
      Показать сообщения:    

      Три через торрент
      Скачать бесплатно Три
      Три скачать торрент
      Три смотреть онлайн
      Cкачать фильм Три бесплатно
      Три скачать торрент в хорошем качестве
      Три смотреть онлайн бесплатно в хорошем качестве


      Вы не можете начинать темы
      Вы не можете отвечать на сообщения
      Вы не можете редактировать свои сообщения
      Вы не можете удалять свои сообщения
      Вы не можете голосовать в опросах
      Вы не можете прикреплять файлы к сообщениям
      Вы можете скачивать файлы