Ссылка на приватное зеркало нашего сайта всего за 1$. Внимание количество ограничено!!!

2 сезон

iTunes

1 сезон

1

iTunes

iTunes

iTunes

1 сезон

RePack

30

ИГРА 18+

pack

ВАЖНО

!!Акция!!

Alien_RageХит недели

RePack

MK11
pack

Забери бонус

RePack

jed

!!Акция!!

Alien_Rage

RePack

fifa19

RePack

Assassins Creed: Odyssey

RePack

NEED FOR SPEED™ PAYBACK

4 сезон

9 сезон

Бесстыжие 9 сезон

Все сериалы

все сериалы на PB.wtf

RePack

FAR CRY 5
  

Взрослые новички / Adult Beginners (Росс Кац) [2014, драма, комедия, BDRip 1080p] Дубляж - [iTunes] pb.wtf

Взрослые новички через торрент pb.wtf

Размер: 9.12 GB | Добавлен: 4 года 11 мес. назад | Торрент скачан:59 раз
Скачать  

08-11-2015 17:11 Взрослые новички Скачать торрент  

Взрослые новички / Adult Beginners«Some people just can't handle growing up»

  • Год выхода: 2014
  • Жанр: драма, комедия

  • Страна: США
  • Продолжительность: 01:32:04
  • Перевод: Дубляж - [iTunes]
  • Cубтитры: английские,
  • Режиссер: Росс Кац
  • В ролях:

    Роуз Бирн (Justine), Ник Кролл (Jake), Бобби Каннавале (Danny), Джоэл МакХэйл (Hudson), Калеб и Мэттью Пэддок (Teddy), Паула Гарсес (Blanca), Кэйтлин Фицджералд (Kat), Джейн Краковски (Miss Jenn), Майк Бирбиглия (Braden), Грег Джонсон (Business Dude), Бобби Мойнахан (Paul), Сет Барриш (Doctor)


  • Молодой самовлюблённый предприниматель терпит крах накануне запуска своей компании. Переживать возникший на месте его жизни хаос он едет с родного Манхэттена к беременной сестре, с которой давно не поддерживал отношения, её мужу и 3-летнему племяннику, живущим в пригороде - и становится их няней.

  • Качество: BDRip 1080p
  • Формат: MKV
  • Видео кодек: AVC
  • Аудио кодек: AC3, DTS
  • Видео: AVC, 1920x1036 (1.853), 11999 kbps, 23,976 fps, 0,252 bpp
  • Аудио №1: русский / AC3 / 2.0 / 48 kHz / 384 kbps / 16 bit |Дубляж [iTunes]|
  • Аудио №2: английский / DTS / 5.1 / 48 kHz / 1510 kbps / 24 bit
  • Навигация по главам: есть

    Код:

    General
    Unique ID                                : 235742564975309926265516023407177285264 (0xB15A5DD349EACAD28073C7CD82DABE90)
    Complete name                            : H:\A.Beg1nners.2015.D.BDRip.1080p.mkv
    Format                                   : Matroska
    Format version                           : Version 2
    File size                                : 9.12 GiB
    Duration                                 : 1h 32mn
    Overall bit rate                         : 14.2 Mbps
    Movie name                               : Adult.Beginners.2014.BluRay.720p.DTS-HD.MA5.1.x264-EPiC
    Encoded date                             : UTC 2015-11-08 04:04:11
    Writing application                      : mkvmerge v8.3.0 ('Over the Horizon') 64bit
    Writing library                          : libebml v1.3.1 + libmatroska v1.4.2

    Video
    ID                                       : 1
    Format                                   : AVC
    Format/Info                              : Advanced Video Codec
    Format profile                           : High@L4.1
    Format settings, CABAC                   : Yes
    Format settings, ReFrames                : 4 frames
    Codec ID                                 : V_MPEG4/ISO/AVC
    Duration                                 : 1h 32mn
    Bit rate                                 : 12.0 Mbps
    Width                                    : 1 920 pixels
    Height                                   : 1 036 pixels
    Display aspect ratio                     : 1.853
    Frame rate                               : 23.976 fps
    Color space                              : YUV
    Chroma subsampling                       : 4:2:0
    Bit depth                                : 8 bits
    Scan type                                : Progressive
    Bits/(Pixel*Frame)                       : 0.252
    Stream size                              : 7.72 GiB (85%)
    Writing library                          : x264 core 146 r2538 121396c
    Encoding settings                        : cabac=1 / ref=4 / deblock=1:-3:-3 / analyse=0x3:0x113 / me=umh / subme=10 / psy=1 / psy_rd=1.00:0.00 / mixed_ref=1 / me_range=24 / chroma_me=1 / trellis=2 / 8x8dct=1 / cqm=0 / deadzone=21,11 / fast_pskip=1 / chroma_qp_offset=-2 / threads=6 / lookahead_threads=1 / sliced_threads=0 / nr=0 / decimate=1 / interlaced=0 / bluray_compat=0 / constrained_intra=0 / bframes=8 / b_pyramid=2 / b_adapt=2 / b_bias=0 / direct=1 / weightb=1 / open_gop=0 / weightp=2 / keyint=250 / keyint_min=25 / scenecut=40 / intra_refresh=0 / rc_lookahead=60 / rc=crf / mbtree=0 / crf=16.0 / qcomp=0.60 / qpmin=0 / qpmax=69 / qpstep=4 / vbv_maxrate=62500 / vbv_bufsize=78125 / crf_max=0.0 / nal_hrd=none / filler=0 / ip_ratio=1.40 / pb_ratio=1.30 / aq=1:0.80
    Default                                  : Yes
    Forced                                   : No

    Audio #1
    ID                                       : 2
    Format                                   : AC-3
    Format/Info                              : Audio Coding 3
    Mode extension                           : CM (complete main)
    Codec ID                                 : A_AC3
    Duration                                 : 1h 32mn
    Bit rate mode                            : Constant
    Bit rate                                 : 384 Kbps
    Channel(s)                               : 2 channels
    Channel positions                        : Front: L R
    Sampling rate                            : 48.0 KHz
    Bit depth                                : 16 bits
    Compression mode                         : Lossy
    Stream size                              : 253 MiB (3%)
    Language                                 : Russian
    Default                                  : Yes
    Forced                                   : No

    Audio #2
    ID                                       : 3
    Format                                   : DTS
    Format/Info                              : Digital Theater Systems
    Codec ID                                 : A_DTS
    Duration                                 : 1h 32mn
    Bit rate mode                            : Constant
    Bit rate                                 : 1 510 Kbps
    Channel(s)                               : 6 channels
    Channel positions                        : Front: L C R, Side: L R, LFE
    Sampling rate                            : 48.0 KHz
    Bit depth                                : 24 bits
    Compression mode                         : Lossy
    Stream size                              : 994 MiB (11%)
    Language                                 : English
    Default                                  : No
    Forced                                   : No

    Text
    ID                                       : 4
    Format                                   : UTF-8
    Codec ID                                 : S_TEXT/UTF8
    Codec ID/Info                            : UTF-8 Plain Text
    Language                                 : English
    Default                                  : No
    Forced                                   : No

    Menu
    00:00:00.000                             : en:Chapter 01
    00:05:18.276                             : en:Chapter 02
    00:09:24.147                             : en:Chapter 03
    00:16:24.275                             : en:Chapter 04
    00:22:50.995                             : en:Chapter 05
    00:27:53.005                             : en:Chapter 06
    00:31:58.708                             : en:Chapter 07
    00:37:57.275                             : en:Chapter 08
    00:43:24.727                             : en:Chapter 09
    00:50:47.461                             : en:Chapter 10
    00:56:19.501                             : en:Chapter 11
    01:03:23.591                             : en:Chapter 12
    01:12:22.213                             : en:Chapter 13
    01:18:43.010                             : en:Chapter 14
    01:24:22.599                             : en:Chapter 15
    01:27:39.588                             : en:Chapter 16

    Скриншоты:


    © Оформление by -Lexx- pb.wtf



  • Скачать Взрослые новички через торрент http://pic.kartinco.top/images/6/stazu.jpg Скачать фильм Взрослые новички через торрент бесплантно в хорошем качестве qw.png Молодой самовлюблённый предприниматель терпит крах накануне запуска своей компании. Переживать возникший на месте его жизни хаос ... 9 10 9
    Торрент: Зарегистрирован [2015-11-08 17:11] · скачан: 59 раз
    Статус: √ проверено
    Размер: 9.12 GB
    Как cкачать? Как скачать Взрослые новички через торрент | qTorrent

    % Раздел Тема Автор DL S | L
    Фильмы 2014 [DVDrip, WEB-DLRip, HDrip] [ 1.37 GB ] Взрослые новички / Adult Beginners [2014 HDRip] -Lexx- Скачать
    1 | 0

    28-11-2019 20:33  

    Отключить всю рекламу на сайте

      Дорогой пользователь! Огромная просьба, поблагодарите релизера, оцените раздачу и оставьте свои комментарий, если Вы скачали Взрослые новички через торрент бесплатно! Внесите свою лепту в развитие PiratBit!
      Комментировать посты могут только пользователи прошедшие не сложную регистрацию
      Показать сообщения:    

      Взрослые новички через торрент
      Скачать бесплатно Взрослые новички
      Взрослые новички скачать торрент
      Взрослые новички смотреть онлайн
      Cкачать фильм Взрослые новички бесплатно
      Взрослые новички скачать торрент в хорошем качестве
      Взрослые новички смотреть онлайн бесплатно в хорошем качестве


      Вы не можете начинать темы
      Вы не можете отвечать на сообщения
      Вы не можете редактировать свои сообщения
      Вы не можете удалять свои сообщения
      Вы не можете голосовать в опросах
      Вы не можете прикреплять файлы к сообщениям
      Вы можете скачивать файлы