Ссылка на приватное зеркало всего за 1$. Внимание количество ограничено!!!

OK

1+1

iTunes

мы

OK

1

WEB-DLRip

Джокер

Пифагор

Ведьмак / The Witcher сериал

iTunes

ПШазам

ОК

Оно 2

iTunes

30
pack

Вам бонус

ВАЖНО

!!Акция!!

Alien_RageХит недели

RePack

Resident Evil 21

ИГРА 18+

pack

RePack

jed

RePack

fifa19

RePack

Assassins Creed: Odyssey

RePack

NEED FOR SPEED™ PAYBACK

4 сезон

9 сезон

Бесстыжие 9 сезон

Все сериалы

все сериалы на PB.wtf

RePack

FAR CRY 5
  

Бумажные города / Paper Towns (Джейк Шрейер / Jake Schreier) [2015, США, мелодрама, детектив, комедия, BDRip-AVC от sokol_ok] DUB Лицензия pb.wtf

Бумажные города через торрент pb.wtf

Раздают: 1 [ 0 KB/s ]
Размер: 2.19 GB | Добавлен: 4 года 2 мес. назад | Торрент скачан:294 раза
Скачать  

09-11-2015 11:53 Бумажные города Скачать торрент  

Бумажные города
Paper Towns

«Найди меня»


Страна: США
Жанр: мелодрама, детектив, комедия

Год выпуска: 2015
Продолжительность: 01:49:05

Перевод: Профессиональный (полное дублирование) [Лицензия BD EUR]
Субтитры: русские (Forced, Full), украинские (Full), английские
Оригинальная аудиодорожка: Английский

Режиссер: Джейк Шрейер / Jake Schreier

В ролях: Нат Вулф, Кара Делевинь, Остин Абрамс, Джастис Смит, Холстон Сейдж, Жасмин Сабино, Кара Буоно, Джозиа Серио, Ханна Аллигуд, Мэг Кросби, Гриффин Фриман, Кэйтлин Карвер

Описание:
Выпускник школы Кью Джейкобсен с детских лет тайно влюблен в свою прекрасную и дерзкую соседку Марго Рот Шпигельманн. Поэтому, когда однажды ночью она приглашает его принять участие в «карательной операции» против ее обидчиков, он соглашается. Но, придя в школу после их ночного приключения, Кью узнает, что Марго исчезла... оставив для него лишь таинственные послания, которые он должен разгадать, чтобы найти девушку. Релиз:

Автор рипа: Stalker oK

Сэмпл

Качество видео: BDRip-AVC [Blu-ray 1080p]
Формат видео: MKV
Видео кодек: AVC
Аудио кодек: AC3
Видео: 1972 Кбит/сек, 1152*480 (2,40:1), в 23,976 кадр/сек, AVC
Аудио #1: Russian, 448 Кбит/сек, 48,0 КГц, 16 бит, 6 канала(ов), AC-3
Аудио #2: English, 448 Кбит/сек, 48,0 КГц, 16 бит, 6 канала(ов), AC-3
Навигация по главам: есть

Общее
Уникальный идентификатор : 226581409906798971842467845488067243539 (0xAA75FE02015AA0749E7BF0C143CC6E13)
Полное имя : M:\Rips\Paper Tows\Paper.Towns.2015.BDRip-AVC.Dub.2.18Gb...stalkerok.new-team.mkv
Формат : Matroska
Размер файла : 2,19 Гбайт
Продолжительность : 1 ч. 49 м.
Общий поток : 2871 Кбит/сек
Название фильма : Paper Towns (2015) (New-Team) (Rip by Stalker oK)
Дата кодирования : UTC 2015-11-09 11:38:58
Программа кодирования : mkvmerge v7.9.0 ('Birds') 64bit
Библиотека кодирования : libebml v1.3.1 + libmatroska v1.4.2

Видео
Идентификатор : 1
Формат : AVC
Формат/Информация : Advanced Video Codec
Профиль формата : High@L4.1
Параметр CABAC формата : Да
Параметр ReFrames формата : 12 кадры
Идентификатор кодека : V_MPEG4/ISO/AVC
Продолжительность : 1 ч. 49 м.
Битрейт : 1972 Кбит/сек
Ширина : 1152 пикс.
Высота : 480 пикс.
Соотношение сторон : 2,40:1
Частота кадров : 23,976 кадр/сек
Цветовое пространство : YUV
Подвыборка цветности : 4:2:0
Битовая глубина : 8 бит
Тип развёртки : Прогрессивная
Бит/(Пиксели*Кадры) : 0.149
Размер потока : 1,46 Гбайт (67%)
Заголовок : Paper Towns (2015) (New-Team) (Rip by Stalker oK)
Библиотека кодирования : x264 core 146 r2538kMod 121396c
Настройки программы : cabac=1 / ref=12 / deblock=1:-3:-3 / analyse=0x3:0x133 / me=umh / subme=11 / psy=1 / fade_compensate=0.00 / psy_rd=1.00:0.12 / mixed_ref=1 / me_range=48 / chroma_me=1 / trellis=2 / 8x8dct=1 / cqm=0 / deadzone=21,11 / fast_pskip=0 / chroma_qp_offset=-3 / threads=12 / lookahead_threads=3 / sliced_threads=0 / nr=0 / decimate=0 / interlaced=0 / bluray_compat=0 / constrained_intra=0 / fgo=0 / bframes=12 / b_pyramid=2 / b_adapt=2 / b_bias=0 / direct=3 / weightb=1 / open_gop=0 / weightp=2 / keyint=240 / keyint_min=23 / scenecut=40 / intra_refresh=0 / rc_lookahead=60 / rc=2pass / mbtree=0 / bitrate=1972 / ratetol=1.0 / qcomp=0.70 / qpmin=0 / qpmax=69 / qpstep=4 / cplxblur=20.0 / qblur=0.5 / vbv_maxrate=50000 / vbv_bufsize=62500 / nal_hrd=none / filler=0 / ip_ratio=1.40 / pb_ratio=1.30 / aq=3:0.80

Аудио #1
Идентификатор : 2
Формат : AC-3
Формат/Информация : Audio Coding 3
Расширение режима : CM (complete main)
Идентификатор кодека : A_AC3
Продолжительность : 1 ч. 49 м.
Вид битрейта : Постоянный
Битрейт : 448 Кбит/сек
Канал(ы) : 6 канала(ов)
Расположение каналов : Front: L C R, Side: L R, LFE
Частота : 48,0 КГц
Битовая глубина : 16 бит
Метод сжатия : С потерями
Размер потока : 350 Мбайт (16%)
Язык : Russian

Аудио #2
Идентификатор : 3
Формат : AC-3
Формат/Информация : Audio Coding 3
Расширение режима : CM (complete main)
Идентификатор кодека : A_AC3
Продолжительность : 1 ч. 49 м.
Вид битрейта : Постоянный
Битрейт : 448 Кбит/сек
Канал(ы) : 6 канала(ов)
Расположение каналов : Front: L C R, Side: L R, LFE
Частота : 48,0 КГц
Битовая глубина : 16 бит
Метод сжатия : С потерями
Размер потока : 350 Мбайт (16%)
Язык : English

Текст #1
Идентификатор : 4
Формат : UTF-8
Идентификатор кодека : S_TEXT/UTF8
Идентификатор кодека/Информация : UTF-8 Plain Text
Заголовок : Forced
Язык : Russian

Текст #2
Идентификатор : 5
Формат : UTF-8
Идентификатор кодека : S_TEXT/UTF8
Идентификатор кодека/Информация : UTF-8 Plain Text
Заголовок : Full
Язык : Russian

Текст #3
Идентификатор : 6
Формат : UTF-8
Идентификатор кодека : S_TEXT/UTF8
Идентификатор кодека/Информация : UTF-8 Plain Text
Заголовок : Full
Язык : Ukrainian

Текст #4
Идентификатор : 7
Формат : UTF-8
Идентификатор кодека : S_TEXT/UTF8
Идентификатор кодека/Информация : UTF-8 Plain Text
Язык : English

Меню
00:00:00.000 : en:Chapter 1
00:03:59.239 : en:Chapter 2
00:06:03.196 : en:Chapter 3
00:09:06.629 : en:Chapter 4
00:11:11.379 : en:Chapter 5
00:13:35.064 : en:Chapter 6
00:18:08.212 : en:Chapter 7
00:22:26.011 : en:Chapter 8
00:27:34.527 : en:Chapter 9
00:31:18.209 : en:Chapter 10
00:33:18.746 : en:Chapter 11
00:37:51.310 : en:Chapter 12
00:40:43.983 : en:Chapter 13
00:43:56.550 : en:Chapter 14
00:48:08.802 : en:Chapter 15
00:50:20.100 : en:Chapter 16
00:54:39.192 : en:Chapter 17
00:59:02.705 : en:Chapter 18
01:02:55.021 : en:Chapter 19
01:06:57.930 : en:Chapter 20
01:13:01.085 : en:Chapter 21
01:16:49.479 : en:Chapter 22
01:21:41.521 : en:Chapter 23
01:26:22.093 : en:Chapter 24
01:33:31.147 : en:Chapter 25
01:36:36.499 : en:Chapter 26
01:39:32.967 : en:Chapter 27
01:42:31.395 : en:Chapter 28
pb.wtf



Скачать Бумажные города через торрент http://i72.fastpic.ru/big/2015/0531/46/68ef8a2783b58e5344cc30bbd3f1b046.png Скачать фильм Бумажные города через торрент бесплантно в хорошем качестве Описание:Выпускник школы Кью Джейкобсен с детских лет тайно влюблен в свою прекрасную и дерзкую соседку Марго Рот Шпигельманн. Поэтому, ... 10 10 4
Info! Серебряная раздача, засчитывается только 50% скачанного.
Торрент: Зарегистрирован [2015-11-09 11:53] · скачан: 294 раз
Статус: √ проверено
Размер: 2.19 GB
Как cкачать? Как скачать Бумажные города через торрент | qTorrent

% Раздел Тема Автор DL S | L
Фильмы 2015 [DVDrip, WEB-DLRip, HDrip] [ 745 MB ] Бумажные города / Paper Towns [2015 BDRip-AVC от sokol_ok] DUB sokol_ok Скачать
2 | 0
Фильмы 2015 [DVDrip, WEB-DLRip, HDrip] [ 1.46 GB ] Бумажные города / Paper Towns [2015 BDRip-AVC от sokol_ok] DUB sokol_ok Скачать
2 | 0

28-11-2019 20:33  

Отключить всю рекламу на сайте

09-11-2015 14:55 Бумажные города Скачать торрент  

описание фильма - этот справа судя по её выражению лица слева вдул :sarcastic_blum:pb.wtf



09-11-2015 15:51 Бумажные города Скачать торрент  

норм фильмpb.wtf



    Дорогой пользователь! Огромная просьба, поблагодарите релизера, оцените раздачу и оставьте свои комментарий, если Вы скачали Бумажные города через торрент бесплатно! Внесите свою лепту в развитие PiratBit!
    Комментировать посты могут только пользователи прошедшие не сложную регистрацию
    Показать сообщения:    

    Бумажные города через торрент
    Скачать бесплатно Бумажные города
    Бумажные города скачать торрент
    Бумажные города смотреть онлайн
    Cкачать фильм Бумажные города бесплатно
    Бумажные города скачать торрент в хорошем качестве
    Бумажные города смотреть онлайн бесплатно в хорошем качестве


    Вы не можете начинать темы
    Вы не можете отвечать на сообщения
    Вы не можете редактировать свои сообщения
    Вы не можете удалять свои сообщения
    Вы не можете голосовать в опросах
    Вы не можете прикреплять файлы к сообщениям
    Вы можете скачивать файлы