Ссылка на приватное зеркало всего за 1$. Внимание количество ограничено!!!

OK

1+1

iTunes

мы

OK

1

WEB-DLRip

Джокер

Пифагор

Ведьмак / The Witcher сериал

iTunes

ПШазам

ОК

Оно 2

iTunes

30
pack

Вам бонус

ВАЖНО

!!Акция!!

Alien_RageХит недели

RePack

Resident Evil 21

ИГРА 18+

pack

RePack

jed

RePack

fifa19

RePack

Assassins Creed: Odyssey

RePack

NEED FOR SPEED™ PAYBACK

4 сезон

9 сезон

Бесстыжие 9 сезон

Все сериалы

все сериалы на PB.wtf

RePack

FAR CRY 5
  

Три (Павел Хвалеев) [2015, ужасы, триллер, драма, BDRip-AVC от potroks] [Лицензия] pb.wtf

Три через торрент pb.wtf

Размер: 1.37 GB | Добавлен: 4 года 2 мес. назад | Торрент скачан:260 раз
Скачать  

09-11-2015 15:08 Три Скачать торрент  

Три
«Чем ближе ко дну океана, тем он темнее»
Год выпуска: 2015
Страна: Германия, Россия / Moonbeam Film Studio
Жанр: ужасы, триллер, драма
Продолжительность: 01:20:25
Перевод: Оригинал [Blu-Ray]
Субтитры: английские
Навигация по главам: есть
Режиссер: Павел Хвалеев
В ролях:

Полина Давыдова, Евгений Гагарин, Любовь Игнатушко
Описание: В маленький европейский городок, в котором живут сёстры Айя и Мирра, пришла неизвестная болезнь, которая унесла жизни многих горожан. После смерти мамы заболевает младшая Мирра. Понимая, что традиционная медицина бессильна перед болезнью сестры, Айя обращается за помощью к близкому другу семьи, приходскому священнику отцу Герману. В его доме Айя случайно находит книги далёкие от традиционной религии.
Она узнаёт, что только проникнув в больное подсознание Мирры и отыскав истинную причину её болезни, она получит шанс на спасение сестры. Айя готова пройти страшный ритуал, погрузиться в недра подсознания и встретиться лицом к лицу с обитающими там демонами. Но сможет ли она справиться с собственным страхом, когда узнает все тайны прошлой жизни сестры?

Качество: BDRip-AVC
Формат: MKV
Видео кодек: AVC
Аудио кодек: AC3
Видео: 1040x442 (2.35:1), 2248 kbps, 24 fps, 0,204 bit/pixel
Аудио: AC3 / 2.0 / 48 kHz / 192 kbps / 16 bit

Релиз группы:
Автор рипа: potroks

Код:

General
Unique ID                                : 183260187925114262415787308764987704981 (0x89DEA0DBCD1EFB3BB3ECAD7D6E80C695)
Complete name                            : N:\Ужасы\Tri.2015.RUS.BDRip.x264.-HELLYWOOD.mkv
Format                                   : Matroska
Format version                           : Version 4 / Version 2
File size                                : 1.37 GiB
Duration                                 : 1h 20mn
Overall bit rate                         : 2 441 Kbps
Movie name                               : Три (2015) - HELLYWOOD
Encoded date                             : UTC 2010-02-22 21:41:31
Writing application                      : mkvmerge v5.8.0 ('No Sleep / Pillow') built on Sep 30 2012 10:57:14
Writing library                          : libebml v1.3.0 + libmatroska v1.4.0

Video
ID                                       : 1
Format                                   : AVC
Format/Info                              : Advanced Video Codec
Format profile                           : High@L4.1
Format settings, CABAC                   : Yes
Format settings, ReFrames                : 10 frames
Codec ID                                 : V_MPEG4/ISO/AVC
Duration                                 : 1h 20mn
Bit rate                                 : 2 248 Kbps
Width                                    : 1 040 pixels
Height                                   : 442 pixels
Display aspect ratio                     : 2.35:1
Frame rate                               : 24.000 fps
Color space                              : YUV
Chroma subsampling                       : 4:2:0
Bit depth                                : 8 bits
Scan type                                : Progressive
Bits/(Pixel*Frame)                       : 0.204
Stream size                              : 1.24 GiB (90%)
Writing library                          : x264 core 146 r2538 121396c
Encoding settings                        : cabac=1 / ref=10 / deblock=1:-2:-2 / analyse=0x3:0x113 / me=umh / subme=11 / psy=1 / psy_rd=1.00:0.00 / mixed_ref=1 / me_range=48 / chroma_me=1 / trellis=2 / 8x8dct=1 / cqm=0 / deadzone=21,11 / fast_pskip=0 / chroma_qp_offset=-2 / threads=9 / lookahead_threads=2 / sliced_threads=0 / nr=0 / decimate=0 / interlaced=0 / bluray_compat=0 / constrained_intra=0 / bframes=11 / b_pyramid=2 / b_adapt=2 / b_bias=0 / direct=3 / weightb=1 / open_gop=0 / weightp=2 / keyint=250 / keyint_min=23 / scenecut=40 / intra_refresh=0 / rc_lookahead=60 / rc=2pass / mbtree=0 / bitrate=2248 / ratetol=1.0 / qcomp=0.70 / qpmin=0 / qpmax=69 / qpstep=4 / cplxblur=20.0 / qblur=0.5 / vbv_maxrate=14000 / vbv_bufsize=14000 / nal_hrd=none / filler=0 / ip_ratio=1.40 / pb_ratio=1.30 / aq=1:0.80
Language                                 : Russian
Default                                  : Yes
Forced                                   : No

Audio
ID                                       : 2
Format                                   : AC-3
Format/Info                              : Audio Coding 3
Mode extension                           : CM (complete main)
Codec ID                                 : A_AC3
Duration                                 : 1h 20mn
Bit rate mode                            : Constant
Bit rate                                 : 192 Kbps
Channel(s)                               : 2 channels
Channel positions                        : Front: L R
Sampling rate                            : 48.0 KHz
Bit depth                                : 16 bits
Compression mode                         : Lossy
Stream size                              : 110 MiB (8%)
Title                                    : DD 2.0 @ 192 kbps
Language                                 : Russian
Default                                  : Yes
Forced                                   : No

Text
ID                                       : 3
Format                                   : UTF-8
Codec ID                                 : S_TEXT/UTF8
Codec ID/Info                            : UTF-8 Plain Text
Language                                 : English
Default                                  : No
Forced                                   : No

Menu
00:00:00.000                             : en:(01)00:00:00:000
00:05:22.958                             : en:(02)00:05:22:958
00:11:29.083                             : en:(03)00:11:29:083
00:19:20.208                             : en:(04)00:19:20:208
00:31:55.125                             : en:(05)00:31:55:125
00:40:51.958                             : en:(06)00:40:51:958
00:50:59.625                             : en:(07)00:50:59:625
01:01:12.750                             : en:(08)01:01:12:750

pb.wtf



Скачать Три через торрент http://i73.fastpic.ru/big/2015/1109/58/e4094b91fa5006ed2a55ab9fafabd158.png Скачать фильм Три через торрент бесплантно в хорошем качестве Описание: В маленький европейский городок, в котором живут сёстры Айя и Мирра, пришла неизвестная болезнь, которая унесла жизни многих ... 8.9 10 11
Торрент: Зарегистрирован [2015-11-09 15:08] · скачан: 260 раз
Статус: √ проверено
Размер: 1.37 GB
Как cкачать? Как скачать Три через торрент | qTorrent

% Раздел Тема Автор DL S | L
Фильмы 2006-2008 [ 2.19 GB ] Невероятный Халк / The Incredible Hulk [2008 DVDRip MVO] Расширенная версия / Extended Cut DEVI Скачать
1 | 0
Наши сериалы [ 5.48 GB ] Ликвидация [2007 DVDRip] DEVI Скачать
1 | 0
Фильмы 2009 [ 1.36 GB ] Эффект бабочки 3: Откровение / Butterfly Effect 3: Revelation [2009 DVDRip] paul08 Скачать
1 | 0
Научно-популярные фильмы [ 672 MB ] Плесень [2008 документальный DVDRip] paul08 Скачать
1 | 0
Фильмы 2009 [ 1.36 GB ] Другой мир: Восстание ликанов / Underworld: Rise of the Lycans [2009 DVDRip] paul08 Скачать
1 | 0
Эротические игры [ 4.09 GB ] Стрип Покер - Страсть и карты / All Star Strip Poker satir_ua Скачать
1 | 0
Фильмы 2009 [ 1.37 GB ] 13-й район: Ультиматум / Banlieue 13 Ultimatum [2009 DVDRip] DEVI Скачать
1 | 0

28-11-2019 20:33  

Отключить всю рекламу на сайте

09-11-2015 16:35 Три Скачать торрент  

Бредятинаpb.wtf



09-11-2015 17:13 Три Скачать торрент  

Кто нибудь что нибудь понял? я нет pb.wtf



16-11-2015 08:27 Три Скачать торрент  

Сначала я ничего не понял, потом посмотрел еще раз и опять ничего не понял.pb.wtf



20-11-2015 16:21 Три Скачать торрент  

Его надо три раза посмотреть, чтобы понять...pb.wtf



20-11-2015 18:00 Три Скачать торрент  

landwarrior писал(а):

Сначала я ничего не понял, потом посмотрел еще раз и опять ничего не понял.

rofl rofl roflpb.wtf



    Дорогой пользователь! Огромная просьба, поблагодарите релизера, оцените раздачу и оставьте свои комментарий, если Вы скачали Три через торрент бесплатно! Внесите свою лепту в развитие PiratBit!
    Комментировать посты могут только пользователи прошедшие не сложную регистрацию
    Показать сообщения:    

    Три через торрент
    Скачать бесплатно Три
    Три скачать торрент
    Три смотреть онлайн
    Cкачать фильм Три бесплатно
    Три скачать торрент в хорошем качестве
    Три смотреть онлайн бесплатно в хорошем качестве


    Вы не можете начинать темы
    Вы не можете отвечать на сообщения
    Вы не можете редактировать свои сообщения
    Вы не можете удалять свои сообщения
    Вы не можете голосовать в опросах
    Вы не можете прикреплять файлы к сообщениям
    Вы можете скачивать файлы