Ссылка на приватное зеркало всего за 1$. Внимание количество ограничено!!!

iTunes

iTunes

iTunes

1

iTunes

iTunes

iTunes

iTunes

iTunes

30
pack

$ от Little Big

ВАЖНО

!!Акция!!

Alien_RageХит недели

RePack

Resident Evil 21

ИГРА 18+

pack

RePack

jed

!!Акция!!

Alien_Rage

RePack

fifa19

RePack

Assassins Creed: Odyssey

RePack

NEED FOR SPEED™ PAYBACK

4 сезон

9 сезон

Бесстыжие 9 сезон

Все сериалы

все сериалы на PB.wtf

RePack

FAR CRY 5
  

Эвакуаторщик / Вредитель / Wrecker (Майкл Бафаро) [2015, триллер, WEB-DL 720p] Любительский (одноголосый) [Васька Куролесов] pb.wtf

Эвакуаторщик через торрент pb.wtf

Размер: 2.66 GB | Добавлен: 4 года 8 мес. назад | Торрент скачан:92 раза
Скачать  

09-11-2015 17:06 Эвакуаторщик Скачать торрент  

Эвакуаторщик / Вредитель / Wrecker

  • Год выхода: 2015
  • Жанр: триллер
  • Страна: Канада
  • Продолжительность: 01:23:15
  • Перевод: Любительский (одноголосый) [Васька Куролесов]
  • Cубтитры: английские (Full)
  • Режиссер: Майкл Бафаро
  • В ролях:

    Анна Хатчисон (Emily), Андреа Уитберн (Leslie), Дженнифер Кениг (Waitress), Дон Нодел (Man in Diner), Майкл Диксон (Pickup Driver), Кертис Магвайр (Gas Attendant), Лори Уотт (Wife), Селия Рид (Festival Girl), Ashley Evans (Jill), Kurt Harder (Hitchhiker), Энди Нез (Husband), С.Дж. Уоллис (Randy)


  • Лучшие подруги Эмили и Лесли решают отправиться в поездку, чтобы отдохнуть от жизни. По совету навигатора они сворачивают с оживленного шоссе на пустынную дорогу. Вскоре они становятся объектом преследования таинственной грузовика, который заставляет девушек сыграть в опасную игру, превращая их поездку в жуткий кошмар.

  • Качество: WEB-DL 720p
  • Формат: MKV
  • Видео кодек: AVC
  • Аудио кодек: AC3
  • Видео: AVC, 1280x530 (2.40:1), 3906 kbps, 23,976 fps, 0,240 bpp
  • Аудио №1: русский / AC3 / 2.0 / 48 kHz / 192 kbps / 16 bit ||
  • Аудио №2: английский / AC3 / 5.1 / 48 kHz / 384 kbps / 16 bit
  • Навигация по главам: есть

    Код:

    General
    Unique ID                                : 177712730873481310506708722078387080421 (0x85B23A1BF03D9F93924865B749250CE5)
    Complete name                            : H:\Wrecker.WEB-DL.720p.mkv
    Format                                   : Matroska
    Format version                           : Version 4 / Version 2
    File size                                : 2.66 GiB
    Duration                                 : 1h 23mn
    Overall bit rate                         : 4 574 Kbps
    Encoded date                             : UTC 2015-11-09 16:47:14
    Writing application                      : mkvmerge v8.5.2 ('Crosses') 64bit
    Writing library                          : libebml v1.3.3 + libmatroska v1.4.4
    DURATION                                 : 01:19:55.928000000
    NUMBER_OF_FRAMES                         : 554
    NUMBER_OF_BYTES                          : 21124
    _STATISTICS_WRITING_APP                  : mkvmerge v8.5.2 ('Crosses') 64bit
    _STATISTICS_WRITING_DATE_UTC             : 2015-11-09 16:47:14
    _STATISTICS_TAGS                         : BPS DURATION NUMBER_OF_FRAMES NUMBER_OF_BYTES

    Video
    ID                                       : 1
    Format                                   : AVC
    Format/Info                              : Advanced Video Codec
    Format profile                           : Main@L3.1
    Format settings, CABAC                   : No
    Format settings, ReFrames                : 2 frames
    Codec ID                                 : V_MPEG4/ISO/AVC
    Duration                                 : 1h 23mn
    Bit rate                                 : 3 907 Kbps
    Width                                    : 1 280 pixels
    Height                                   : 530 pixels
    Display aspect ratio                     : 2.40:1
    Frame rate                               : 23.976 fps
    Color space                              : YUV
    Chroma subsampling                       : 4:2:0
    Bit depth                                : 8 bits
    Scan type                                : Progressive
    Bits/(Pixel*Frame)                       : 0.240
    Stream size                              : 2.27 GiB (85%)
    Title                                    : Wrecker.2015.720p.WEB-DL.DD5.1.H264-RARBG
    Language                                 : English
    Default                                  : Yes
    Forced                                   : No
    Color primaries                          : BT.709-5, BT.1361, IEC 61966-2-4, SMPTE RP177
    Transfer characteristics                 : BT.709-5, BT.1361
    Matrix coefficients                      : BT.709-5, BT.1361, IEC 61966-2-4 709, SMPTE RP177

    Audio #1
    ID                                       : 2
    Format                                   : AC-3
    Format/Info                              : Audio Coding 3
    Mode extension                           : CM (complete main)
    Codec ID                                 : A_AC3
    Duration                                 : 1h 23mn
    Bit rate mode                            : Constant
    Bit rate                                 : 192 Kbps
    Channel(s)                               : 2 channels
    Channel positions                        : Front: L R
    Sampling rate                            : 48.0 KHz
    Bit depth                                : 16 bits
    Compression mode                         : Lossy
    Delay relative to video                  : 15ms
    Stream size                              : 114 MiB (4%)
    Title                                    : VO, Васька Куролесов
    Language                                 : Russian
    Default                                  : Yes
    Forced                                   : No

    Audio #2
    ID                                       : 3
    Format                                   : AC-3
    Format/Info                              : Audio Coding 3
    Mode extension                           : CM (complete main)
    Codec ID                                 : A_AC3
    Duration                                 : 1h 23mn
    Bit rate mode                            : Constant
    Bit rate                                 : 384 Kbps
    Channel(s)                               : 6 channels
    Channel positions                        : Front: L C R, Side: L R, LFE
    Sampling rate                            : 48.0 KHz
    Bit depth                                : 16 bits
    Compression mode                         : Lossy
    Stream size                              : 229 MiB (8%)
    Title                                    : Оригинал
    Language                                 : English
    Default                                  : No
    Forced                                   : No

    Text
    ID                                       : 4
    Format                                   : UTF-8
    Codec ID                                 : S_TEXT/UTF8
    Codec ID/Info                            : UTF-8 Plain Text
    Title                                    : Full
    Language                                 : English
    Default                                  : No
    Forced                                   : No

    Menu
    00:00:00.000                             : en:Stranded
    00:02:08.000                             : en:Ladies in the Desert
    00:09:25.000                             : en:Devil's Pass
    00:13:50.000                             : en:Pit Stop
    00:18:04.000                             : en:a€?His job or our lives.a€
    00:21:48.000                             : en:Glad That's Over With
    00:26:05.000                             : en:Diner
    00:35:22.000                             : en:Roadblock
    00:41:00.000                             : en:a€?Try to keep up with this...a€
    00:44:37.000                             : en:Where's Leslie?
    00:50:06.000                             : en:No Reception
    00:56:04.000                             : en:To Protect and Serve
    01:02:26.000                             : en:Out of Gas
    01:08:49.000                             : en:Engine Light is On
    01:13:32.000                             : en:Playing Chicken
    01:20:57.000                             : en:Credits

    Скриншоты:


    © Оформление by -Lexx- pb.wtf



  • Скачать Эвакуаторщик через торрент http://pic.kartinco.top/images/6/stazu.jpg Скачать фильм Эвакуаторщик через торрент бесплантно в хорошем качестве qw.png Лучшие подруги Эмили и Лесли решают отправиться в поездку, чтобы отдохнуть от жизни. По совету навигатора они сворачивают с ... 10 10 7
    Торрент: Зарегистрирован [2015-11-09 17:06] · скачан: 92 раз
    Статус: T временная
    Размер: 2.66 GB
    Как cкачать? Как скачать Эвакуаторщик через торрент | qTorrent

    28-11-2019 20:33  

    Отключить всю рекламу на сайте

    09-11-2015 18:41 Эвакуаторщик Скачать торрент  

    Где-то мы это уже видели...pb.wtf



    14-11-2015 17:00 Эвакуаторщик Скачать торрент  

    полный бредpb.wtf



      Дорогой пользователь! Огромная просьба, поблагодарите релизера, оцените раздачу и оставьте свои комментарий, если Вы скачали Эвакуаторщик через торрент бесплатно! Внесите свою лепту в развитие PiratBit!
      Комментировать посты могут только пользователи прошедшие не сложную регистрацию
      Показать сообщения:    

      Эвакуаторщик через торрент
      Скачать бесплатно Эвакуаторщик
      Эвакуаторщик скачать торрент
      Эвакуаторщик смотреть онлайн
      Cкачать фильм Эвакуаторщик бесплатно
      Эвакуаторщик скачать торрент в хорошем качестве
      Эвакуаторщик смотреть онлайн бесплатно в хорошем качестве


      Вы не можете начинать темы
      Вы не можете отвечать на сообщения
      Вы не можете редактировать свои сообщения
      Вы не можете удалять свои сообщения
      Вы не можете голосовать в опросах
      Вы не можете прикреплять файлы к сообщениям
      Вы можете скачивать файлы