Ссылка на приватное зеркало нашего сайта всего за 1$. Внимание количество ограничено!!!

2 сезон

iTunes

1 сезон

1

iTunes

iTunes

iTunes

1 сезон

RePack

30

ИГРА 18+

pack

ВАЖНО

!!Акция!!

Alien_RageХит недели

RePack

MK11
pack

Забери бонус

RePack

jed

!!Акция!!

Alien_Rage

RePack

fifa19

RePack

Assassins Creed: Odyssey

RePack

NEED FOR SPEED™ PAYBACK

4 сезон

9 сезон

Бесстыжие 9 сезон

Все сериалы

все сериалы на PB.wtf

RePack

FAR CRY 5
  

Бессонница / Серии: 01-16 из 16 (Андрей Мармонтов) [2014, Россия, боевик, WEB-DLRip от AVP Studio] pb.wtf

Бессонница через торрент pb.wtf

Раздают: 15 [ 0 KB/s ] Качают: 1 [ 0 KB/s ]
Размер: 7.96 GB | Добавлен: 4 года 11 мес. назад | Торрент скачан:327 раз
Скачать  

10-11-2015 08:57 Бессонница Скачать торрент  

Бессонница
Год выпуска: 2014
Страна: Россия
Студия: DixiMedia
Жанр: боевик
Продолжительность: 16 серий ~ по 44 мин.

Перевод: не требуется
Субтитры: нет
Оригинальная аудиодорожка: русский

Режиссер: Андрей Мармонтов

В ролях:
Мацей Штур, Анна Антонова, Владислав Павлов, Юлия Юрченко, Эдуард Флёров, Александр Сетейкин, Алексей Матошин, Вероника Вернадская, Александр Константинов, Юлия Галкина, Дмитрий Астапенко, Андрей Курилов, Виктория Фишер, Дарья Повереннова, Алексей Фаддеев, Виктор Проскурин, Дмитрий Астрахан, Юрий Сувейко, Марина Кондратьева (II), Елена Коренева, Андрей Ташков, Александр Пашков, Мухтар Гусенгаджиев, Владимир Качан, Максим Щёголев, Дмитрий Файнштейн, Михаил Хмуров, Юлия Шиферштейн, Иван Мамонов, Антон Афанасьев, Денис Ткачёв, Юрий Гумиров, Николай Перминов, Антон Батырев, Олег Новиков (IV), Александр Журман, Георгий Мартиросян, Алексей Захаров, Павел Басов, Екатерина Альбрандт...
Полный список актёров

Описание:
Без сна человеческий организм не может существовать бесконечно.
В одном из подпольных казино, больше похожем на тайный клуб, играют только самые богатые, самые влиятельные и… самые пресыщенные. Те, кто готов ставить целые состояния на красное, если это красное – кровь. Для них и был создан новый тотализатор, основанный на игре «Бессонница», который проводится всего раз в год. Клиенты казино, делая свои ставки, рискуют миллионами, но игроки рискуют гораздо большим.
Из 10 игроков последний не заснувший и оставшийся в живых – победитель. И нельзя сказать, что участие в игре – дело полностью добровольное.

Исходник: WEB-DL 1080i
Качество видео: WEB-DLRip
Формат видео: AVI

Видео: 720х400 (16:9), 25 fps, XviD ~ 1400 kbps avg, 0.194 bit/pixel
Аудио: 48 kHz, Dolby Digital AC3 2.0, 192 kbps

Раздача от:
Общее
Полное имя : D:\Tracker\Сериалы\Бессонница\Bessonnitsa.2013.WEB-DLRip_[New-team]_by_AVP_Studio\01.avi
Формат : AVI
Формат/Информация : Audio Video Interleave
Размер файла : 508 Мбайт
Продолжительность : 44 м.
Общий поток : 1601 Кбит/сек
Программа кодирования : VirtualDubMod 1.5.10.3 | www.virtualdub-fr.org || (build 2550/release)
Библиотека кодирования : VirtualDubMod build 2550/release

Видео
Идентификатор : 0
Формат : MPEG-4 Visual
Профиль формата : Advanced Simple@L5
Параметр BVOP формата : 1
Параметр QPel формата : Нет
Параметр GMC формата : Без точки перехода
Параметр матрицы формата : Выборочная
Идентификатор кодека : XVID
Идентификатор кодека/Подсказка : XviD
Продолжительность : 44 м.
Битрейт : 1400 Кбит/сек
Ширина : 720 пикселей
Высота : 400 пикселей
Соотношение сторон : 16:9
Частота кадров : 25,000 кадров/сек
Цветовое пространство : YUV
Субдискретизация насыщенности : 4:2:0
Битовая глубина : 8 бит
Тип развёртки : Прогрессивная
Метод сжатия : С потерями
Бит/(Пиксели*Кадры) : 0.194
Размер потока : 444 Мбайт (87%)
Библиотека кодирования : XviD 73

Аудио
Идентификатор : 1
Формат : AC-3
Формат/Информация : Audio Coding 3
Расширение режима : CM (complete main)
Параметр Endianness формата : Big
Идентификатор кодека : 2000
Продолжительность : 44 м.
Вид битрейта : Постоянный
Битрейт : 192 Кбит/сек
Каналы : 2 канала
Расположение каналов : Front: L R
Частота : 48,0 КГц
Метод сжатия : С потерями
Размер потока : 60,9 Мбайт (12%)
Выравнивание : Разделение по промежуткам
Продолжительность промежутка : 40 мс. (1,00 видеокадр)
Время предзагрузки промежутка : 500 мс
pb.wtf



Скачать Бессонница через торрент http://i1.imageban.ru/out/2015/11/10/ac7629b7363a1732d81b83850aff8e85.png Скачать фильм Бессонница через торрент бесплантно в хорошем качестве Описание:Без сна человеческий организм не может существовать бесконечно.В одном из подпольных казино, больше похожем на тайный клуб, играют ... 9.9 10 10
Торрент: Зарегистрирован [2015-11-10 08:57] · скачан: 327 раз
Статус: √ проверено
Размер: 7.96 GB
Как cкачать? Как скачать Бессонница через торрент | qTorrent

% Раздел Тема Автор DL S | L
Наши сериалы [ 32.98 GB ] Бессонница / Сезон: 1 / Серии: 1-16 из 16 [2014 HDTV 1080i] bober100 Скачать
1 | 0
Наши сериалы [ 12.99 GB ] Бессонница / Серии: 01-16 из 16 [2014 Россия WEB-DLRip-AVC от AVP Studio] AVP Studio Скачать
1 | 0

28-11-2019 20:33  

Отключить всю рекламу на сайте

    Дорогой пользователь! Огромная просьба, поблагодарите релизера, оцените раздачу и оставьте свои комментарий, если Вы скачали Бессонница через торрент бесплатно! Внесите свою лепту в развитие PiratBit!
    Комментировать посты могут только пользователи прошедшие не сложную регистрацию
    Показать сообщения:    

    Бессонница через торрент
    Скачать бесплатно Бессонница
    Бессонница скачать торрент
    Бессонница смотреть онлайн
    Cкачать фильм Бессонница бесплатно
    Бессонница скачать торрент в хорошем качестве
    Бессонница смотреть онлайн бесплатно в хорошем качестве


    Вы не можете начинать темы
    Вы не можете отвечать на сообщения
    Вы не можете редактировать свои сообщения
    Вы не можете удалять свои сообщения
    Вы не можете голосовать в опросах
    Вы не можете прикреплять файлы к сообщениям
    Вы можете скачивать файлы