Ссылка на приватное зеркало нашего сайта всего за 1$. Внимание количество ограничено!!!

2 сезон

iTunes

1 сезон

1

iTunes

iTunes

iTunes

1 сезон

RePack

30

ИГРА 18+

pack

ВАЖНО

!!Акция!!

Alien_RageХит недели

RePack

MK11
pack

Забери бонус

RePack

jed

!!Акция!!

Alien_Rage

RePack

fifa19

RePack

Assassins Creed: Odyssey

RePack

NEED FOR SPEED™ PAYBACK

4 сезон

9 сезон

Бесстыжие 9 сезон

Все сериалы

все сериалы на PB.wtf

RePack

FAR CRY 5
  

Виселица / The Gallows (Трэвис Клафф / Travis Cluff, Крис Лофинг / Chris Lofing) [2015г., ужасы, триллер, BDRip 720p / Лицензия] pb.wtf

Виселица через торрент pb.wtf

Размер: 4.35 GB | Добавлен: 4 года 11 мес. назад | Торрент скачан:116 раз
Скачать  

10-11-2015 12:35 Виселица Скачать торрент  

Информация о фильме

Название: Виселица

Оригинальное название: The Gallows

Страна: США

Студия: Blumhouse Productions

Жанр: ужасы, триллер

Год выпуска: 2015

Продолжительность: 01:20:47

Перевод: Профессиональный (дублированный)(Лицензия CEE)

Cубтитры: Rus, Eng

Оригинальная аудиодорожка: английский

Режиссер: Трэвис Клафф / Travis Cluff, Крис Лофинг / Chris Lofing

В ролях: Риз Мишлер, Пфайфер Брау, Райан Шу, Кэссиди Гиффорд, Трэвис Клафф, Прайс Т. Морган, Тео Буркхардт, Дэвид Херрера, Гэннон Дель Фиерро, Маки Берт

Описание: Спустя 20 лет после трагического несчастного случая при постановке школьной пьесы учащиеся решают вновь поставить ее с целью почтить память погибшего ученика. Но в некоторых случаях прошлое лучше не ворошить…



Тип релиза: BDRip 720p

Контейнер: MKV

Видео: MPEG-4 AVC, 6722 Кбит/с, 1280x720, 23,976 fps

Аудио: Rus, AC3, 640 kb/s (6 ch), 48 kHz

Аудио 2: Eng, AC3, 384 kb/s (6 ch), 48 kHz

Формат субтитров: softsub (SRT)
Format : Matroska

Format version : Version 4 / Version 2

File size : 4.35 GiB

Duration : 1h 20mn

Overall bit rate : 7 717 Kbps

Movie name : Виселица. (Tonik)

Encoded date : UTC 2015-11-09 07:03:14

Writing application : mkvmerge v7.1.0 ('Good Love') 64bit built on Jul 27 2014 13:06:55

Writing library : libebml v1.3.0 + libmatroska v1.4.1

DURATION : 01:14:44.104000000

NUMBER_OF_FRAMES : 1225

NUMBER_OF_BYTES : 39297

_STATISTICS_WRITING_APP : mkvmerge v7.1.0 ('Good Love') 64bit built on Jul 27 2014 13:06:55

_STATISTICS_WRITING_DATE_UTC : 2015-11-09 07:03:14

_STATISTICS_TAGS : BPS DURATION NUMBER_OF_FRAMES NUMBER_OF_BYTES

Video

ID : 1

Format : AVC

Format/Info : Advanced Video Codec

Format profile : High@L4.1

Format settings, CABAC : Yes

Format settings, ReFrames : 12 frames

Codec ID : V_MPEG4/ISO/AVC

Duration : 1h 20mn

Bit rate : 6 722 Kbps

Width : 1 280 pixels

Height : 720 pixels

Display aspect ratio : 16:9

Frame rate mode : Constant

Frame rate : 23.976 fps

Color space : YUV

Chroma subsampling : 4:2:0

Bit depth : 8 bits

Scan type : Progressive

Bits/(Pixel*Frame) : 0.304

Stream size : 3.69 GiB (85%)

Writing library : x264 core 142 r2431+42 c69a006 tMod [8-bit@4:2:0 X86_64]

Encoding settings : cabac=1 / ref=12 / deblock=1:0:0 / analyse=0x3:0x113 / me=umh / subme=10 / psy=1 / fade_compensate=0.00 / psy_rd=1.05:0.10 / mixed_ref=1 / me_range=32 / chroma_me=1 / trellis=2 / 8x8dct=1 / cqm=0 / deadzone=21,11 / fast_pskip=0 / chroma_qp_offset=-2 / threads=12 / lookahead_threads=1 / sliced_threads=0 / nr=0 / decimate=1 / interlaced=0 / bluray_compat=0 / constrained_intra=0 / fgo=0 / bframes=6 / b_pyramid=2 / b_adapt=2 / b_bias=0 / direct=3 / weightb=1 / open_gop=0 / weightp=2 / keyint=250 / keyint_min=23 / scenecut=40 / intra_refresh=0 / rc=2pass / mbtree=0 / bitrate=6722 / ratetol=1.0 / qcomp=0.70 / qpmin=0:0:0 / qpmax=69:69:69 / qpstep=4 / cplxblur=20.0 / qblur=0.5 / ip_ratio=1.40 / pb_ratio=1.30 / aq=2:1.00 / aq-sensitivity=10.00 / aq-factor=1.00:1.00:1.00 / aq2=0 / aq3=0

Language : English

Default : Yes

Forced : No

DURATION : 01:20:47.093000000

NUMBER_OF_FRAMES : 116214

NUMBER_OF_BYTES : 4053634760

_STATISTICS_WRITING_APP : mkvmerge v7.1.0 ('Good Love') 64bit built on Jul 27 2014 13:06:55

_STATISTICS_WRITING_DATE_UTC : 2015-11-09 07:03:14

_STATISTICS_TAGS : BPS DURATION NUMBER_OF_FRAMES NUMBER_OF_BYTES

Audio #1

ID : 2

Format : AC-3

Format/Info : Audio Coding 3

Mode extension : CM (complete main)

Format settings, Endianness : Big

Codec ID : A_AC3

Duration : 1h 20mn

Bit rate mode : Constant

Bit rate : 640 Kbps

Channel(s) : 6 channels

Channel positions : Front: L C R, Side: L R, LFE

Sampling rate : 48.0 KHz

Bit depth : 16 bits

Compression mode : Lossy

Stream size : 370 MiB (8%)

Language : Russian

Default : Yes

Forced : No

Audio #2

ID : 3

Format : AC-3

Format/Info : Audio Coding 3

Mode extension : CM (complete main)

Format settings, Endianness : Big

Codec ID : A_AC3

Duration : 1h 20mn

Bit rate mode : Constant

Bit rate : 384 Kbps

Channel(s) : 6 channels

Channel positions : Front: L C R, Side: L R, LFE

Sampling rate : 48.0 KHz

Bit depth : 16 bits

Compression mode : Lossy

Stream size : 222 MiB (5%)

Language : English

Default : No

Forced : No

Text #1

ID : 4

Format : UTF-8

Codec ID : S_TEXT/UTF8

Codec ID/Info : UTF-8 Plain Text

Title : Forced

Language : Russian

Default : Yes

Forced : No

Text #2

ID : 5

Format : UTF-8

Codec ID : S_TEXT/UTF8

Codec ID/Info : UTF-8 Plain Text

Language : Russian

Default : No

Forced : No

Text #3

ID : 6

Format : UTF-8

Codec ID : S_TEXT/UTF8

Codec ID/Info : UTF-8 Plain Text

Language : English

Default : No

Forced : No

Menu

00:00:00.000 : :Chapter 01

00:10:22.038 : :Chapter 02

00:19:19.908 : :Chapter 03

00:30:34.833 : :Chapter 04

00:41:13.679 : :Chapter 05

00:52:14.965 : :Chapter 06

01:00:59.072 : :Chapter 07

01:09:27.580 : :Chapter 08

01:15:47.543 : :Chapter 09

01:20:46.842 : :Chapter 10
pb.wtf



Скачать Виселица через торрент http://i67.fastpic.ru/big/2015/1109/99/27c5500c2d9ea8e0cf8b43513f502799.jpg Скачать фильм Виселица через торрент бесплантно в хорошем качестве Описание: Спустя 20 лет после трагического несчастного случая при постановке школьной пьесы учащиеся решают вновь поставить ее с целью ... 7.5 10 4
Торрент: Зарегистрирован [2015-11-10 12:35] · скачан: 116 раз
Статус: √ проверено
Размер: 4.35 GB
Как cкачать? Как скачать Виселица через торрент | qTorrent

% Раздел Тема Автор DL S | L
Фильмы [HD 720p, 1080p] (Хороший звук DUB, MVO) [ 10.06 GB ] Виселица / The Gallows [2015 BDRip 1080p / ] Ворон Скачать
1 | 0
Фильмы 2015 [DVDrip, WEB-DLRip, HDrip] [ 1.45 GB ] Виселица / The Gallows [2015 HDRip] Ворон Скачать
1 | 0
Фильмы 2015 [DVDrip, WEB-DLRip, HDrip] [ 1.47 GB ] Виселица / The Gallows [2015 HDRip " BD CEE"] coc900 Скачать
1 | 0
Фильмы (Blu-ray, BD-Remux, HDDVD) [ 19.32 GB ] Виселица / The Gallows [2015 BDRemux 1080p] от NovaLan Russian Mafia Скачать
1 | 0
Фильмы (Blu-ray, BD-Remux, HDDVD) [ 38.99 GB ] Виселица / The Gallows [2015 Blu-ray 1080p CEE] Russian Mafia Скачать
1 | 0

28-11-2019 20:33  

Отключить всю рекламу на сайте

11-11-2015 08:37 Виселица Скачать торрент  

Чё всё так печально?pb.wtf



14-11-2015 05:14 Виселица Скачать торрент  

не тратьте времяpb.wtf



    Дорогой пользователь! Огромная просьба, поблагодарите релизера, оцените раздачу и оставьте свои комментарий, если Вы скачали Виселица через торрент бесплатно! Внесите свою лепту в развитие PiratBit!
    Комментировать посты могут только пользователи прошедшие не сложную регистрацию
    Показать сообщения:    

    Виселица через торрент
    Скачать бесплатно Виселица
    Виселица скачать торрент
    Виселица смотреть онлайн
    Cкачать фильм Виселица бесплатно
    Виселица скачать торрент в хорошем качестве
    Виселица смотреть онлайн бесплатно в хорошем качестве


    Вы не можете начинать темы
    Вы не можете отвечать на сообщения
    Вы не можете редактировать свои сообщения
    Вы не можете удалять свои сообщения
    Вы не можете голосовать в опросах
    Вы не можете прикреплять файлы к сообщениям
    Вы можете скачивать файлы