Ссылка на приватное зеркало нашего сайта всего за 1$. Внимание количество ограничено!!!

2 сезон

iTunes

1 сезон

1

iTunes

iTunes

iTunes

1 сезон

RePack

30

ИГРА 18+

pack

ВАЖНО

!!Акция!!

Alien_RageХит недели

RePack

MK11
pack

Забери бонус

RePack

jed

!!Акция!!

Alien_Rage

RePack

fifa19

RePack

Assassins Creed: Odyssey

RePack

NEED FOR SPEED™ PAYBACK

4 сезон

9 сезон

Бесстыжие 9 сезон

Все сериалы

все сериалы на PB.wtf

RePack

FAR CRY 5
  

Великий уравнитель / The Equalizer (Антуан Фукуа / Antoine Fuqua) [2014, боевик, триллер, криминал, BDRip 720p от potroks] DUB, AVO pb.wtf

Великий уравнитель через торрент pb.wtf

Размер: 7.68 GB | Добавлен: 4 года 11 мес. назад | Торрент скачан:774 раза
Скачать  

10-11-2015 15:23 Великий уравнитель Скачать торрент  

Великий уравнитель / The Equalizer
«What do you see when you look at me?»
Год выпуска: 2014
Страна: США / Columbia Pictures, Village Roadshow Pictures, Escape Artists...
Жанр: боевик, триллер, криминал
Продолжительность: 02:12:03
Перевод#1: Дубляж [BD CEE]
Перевод#2: Авторский (одноголосый) [А.Гаврилов, Д.Есарев (x2), А.Матвеев]
Субтитры: русские (полные + форс.), украинские, английские (Forced + Full + SDH + SDH-Colored)
Навигация по главам: есть
Режиссер: Антуан Фукуа / Antoine Fuqua
В ролях:

Дензел Вашингтон (Robert McCall), Мартон Чокаш (Teddy), Хлоя Грейс Морец (Teri), Дэвид Харбор (Masters), Хейли Беннетт (Mandy), Билл Пуллман (Brian Plummer), Мелисса Лео (Susan Plummer), Дэвид Мюнье (Slavi), Джонни Скуртис (Ralphie), Алекс Видов (Tevi), Владимир Кулих (Vladimir Pushkin), Э. Роджер Митчелл (Lead Investigator)
Описание: Роберт МакКолл - бывший спецназовец. После увольнения со службы он собирается начать нормальную мирную жизнь, дав себе обещание больше никогда не брать в руки оружия. Но в один прекрасный момент он встречает молодую девушку, зарабатывающую на жизнь проституцией, которую на его глазах избивают бандиты и увозят в неизвестном направлении. Тогда он решает отыскать ее, после чего вступает в неравную схватку с русской мафией и продажными полицейскими. Ради справедливости он готов нарушить собственное обещание и применить оружие против людей, которые просто не заслуживают жить в этом мире...

Качество: BDRip 720p
Формат: MKV
Видео кодек: AVC
Аудио кодек: AC3
Видео: 1280x534 (2.40:1), 3843 kbps, 23,976 fps, 0,234 bit/pixel
Аудио №1: AC3 / 5.1 / 48 kHz / 640 kbps / 16 bit | DUB - BD CEE
Аудио №2: AC3 / 5.1 / 48 kHz / 640 kbps / 16 bit | AVO - Д.Есарев
Аудио №3: AC3 / 5.1 / 48 kHz / 640 kbps / 16 bit | AVO - Д.Есарев +18
Аудио №4: AC3 / 5.1 / 48 kHz / 640 kbps / 16 bit | AVO - А.Гаврилов
Аудио №5: AC3 / 5.1 / 48 kHz / 640 kbps / 16 bit | AVO - А.Матвеев
Аудио №6: AC3 / 5.1 / 48 kHz / 640 kbps / 16 bit | UKR
Аудио №7: AC3 / 5.1 / 48 kHz / 640 kbps / 16 bit | ENG

Релиз группы:
Автор рипа: potroks

Код:

General
Unique ID                                : 253599369158343995553947256992404146301 (0xBEC9763EAF04617087E545324525087D)
Complete name                            : Velikiy.Uravnitel'.2014.DUAL.BDRip.720p.-HELLYWOOD.mkv
Format                                   : Matroska
Format version                           : Version 4 / Version 2
File size                                : 7.68 GiB
Duration                                 : 2h 12mn
Overall bit rate                         : 8 326 Kbps
Movie name                               : The Equalizer (2014) - HELLYWOOD
Encoded date                             : UTC 2010-02-22 21:41:31
Writing application                      : mkvmerge v5.8.0 ('No Sleep / Pillow') built on Sep 30 2012 10:57:14
Writing library                          : libebml v1.3.0 + libmatroska v1.4.0

Video
ID                                       : 1
Format                                   : AVC
Format/Info                              : Advanced Video Codec
Format profile                           : High@L4.1
Format settings, CABAC                   : Yes
Format settings, ReFrames                : 9 frames
Codec ID                                 : V_MPEG4/ISO/AVC
Duration                                 : 2h 12mn
Bit rate                                 : 3 843 Kbps
Width                                    : 1 280 pixels
Height                                   : 534 pixels
Display aspect ratio                     : 2.40:1
Frame rate                               : 23.976 fps
Color space                              : YUV
Chroma subsampling                       : 4:2:0
Bit depth                                : 8 bits
Scan type                                : Progressive
Bits/(Pixel*Frame)                       : 0.234
Stream size                              : 3.39 GiB (44%)
Title                                    : potroks
Writing library                          : x264 core 130 r2273 b3065e6
Encoding settings                        : cabac=1 / ref=9 / deblock=1:-3:-3 / analyse=0x3:0x133 / me=umh / subme=11 / psy=1 / psy_rd=0.99:0.01 / mixed_ref=1 / me_range=48 / chroma_me=1 / trellis=2 / 8x8dct=1 / cqm=0 / deadzone=21,11 / fast_pskip=0 / chroma_qp_offset=-3 / threads=9 / lookahead_threads=6 / sliced_threads=0 / nr=0 / decimate=0 / interlaced=0 / bluray_compat=0 / constrained_intra=0 / bframes=11 / b_pyramid=2 / b_adapt=2 / b_bias=0 / direct=3 / weightb=1 / open_gop=0 / weightp=2 / keyint=250 / keyint_min=23 / scenecut=40 / intra_refresh=0 / rc_lookahead=60 / rc=2pass / mbtree=0 / bitrate=3843 / ratetol=1.0 / qcomp=0.70 / qpmin=0 / qpmax=69 / qpstep=4 / cplxblur=20.0 / qblur=0.5 / vbv_maxrate=50000 / vbv_bufsize=62500 / nal_hrd=none / ip_ratio=1.35 / pb_ratio=1.25 / aq=1:0.70
Language                                 : English
Default                                  : Yes
Forced                                   : No

Audio #1
ID                                       : 2
Format                                   : AC-3
Format/Info                              : Audio Coding 3
Mode extension                           : CM (complete main)
Codec ID                                 : A_AC3
Duration                                 : 2h 12mn
Bit rate mode                            : Constant
Bit rate                                 : 640 Kbps
Channel(s)                               : 6 channels
Channel positions                        : Front: L C R, Side: L R, LFE
Sampling rate                            : 48.0 KHz
Bit depth                                : 16 bits
Compression mode                         : Lossy
Stream size                              : 604 MiB (8%)
Title                                    : Dub | DD 5.1 @ 640 kbps - Blu-ray CEE
Language                                 : Russian
Default                                  : Yes
Forced                                   : No

Audio #2
ID                                       : 3
Format                                   : AC-3
Format/Info                              : Audio Coding 3
Mode extension                           : CM (complete main)
Codec ID                                 : A_AC3
Duration                                 : 2h 12mn
Bit rate mode                            : Constant
Bit rate                                 : 640 Kbps
Channel(s)                               : 6 channels
Channel positions                        : Front: L C R, Side: L R, LFE
Sampling rate                            : 48.0 KHz
Bit depth                                : 16 bits
Compression mode                         : Lossy
Stream size                              : 604 MiB (8%)
Title                                    : AVO | DD 5.1 @ 640 kbps - D.Yesarev [Censored]
Language                                 : Russian
Default                                  : No
Forced                                   : No

Audio #3
ID                                       : 4
Format                                   : AC-3
Format/Info                              : Audio Coding 3
Mode extension                           : CM (complete main)
Codec ID                                 : A_AC3
Duration                                 : 2h 12mn
Bit rate mode                            : Constant
Bit rate                                 : 640 Kbps
Channel(s)                               : 6 channels
Channel positions                        : Front: L C R, Side: L R, LFE
Sampling rate                            : 48.0 KHz
Bit depth                                : 16 bits
Compression mode                         : Lossy
Stream size                              : 604 MiB (8%)
Title                                    : AVO | DD 5.1 @ 640 kbps - D.Yesarev [Uncensored]
Language                                 : Russian
Default                                  : No
Forced                                   : No

Audio #4
ID                                       : 5
Format                                   : AC-3
Format/Info                              : Audio Coding 3
Mode extension                           : CM (complete main)
Codec ID                                 : A_AC3
Duration                                 : 2h 12mn
Bit rate mode                            : Constant
Bit rate                                 : 640 Kbps
Channel(s)                               : 6 channels
Channel positions                        : Front: L C R, Side: L R, LFE
Sampling rate                            : 48.0 KHz
Bit depth                                : 16 bits
Compression mode                         : Lossy
Stream size                              : 604 MiB (8%)
Title                                    : AVO | DD 5.1 @ 640 kbps - A.Matveev
Language                                 : Russian
Default                                  : No
Forced                                   : No

Audio #5
ID                                       : 6
Format                                   : AC-3
Format/Info                              : Audio Coding 3
Mode extension                           : CM (complete main)
Codec ID                                 : A_AC3
Duration                                 : 2h 12mn
Bit rate mode                            : Constant
Bit rate                                 : 640 Kbps
Channel(s)                               : 6 channels
Channel positions                        : Front: L C R, Side: L R, LFE
Sampling rate                            : 48.0 KHz
Bit depth                                : 16 bits
Compression mode                         : Lossy
Stream size                              : 604 MiB (8%)
Title                                    : AVO | DD 5.1 @ 640 kbps - A.Gavrilov
Language                                 : Russian
Default                                  : No
Forced                                   : No

Audio #6
ID                                       : 7
Format                                   : AC-3
Format/Info                              : Audio Coding 3
Mode extension                           : CM (complete main)
Codec ID                                 : A_AC3
Duration                                 : 2h 12mn
Bit rate mode                            : Constant
Bit rate                                 : 640 Kbps
Channel(s)                               : 6 channels
Channel positions                        : Front: L C R, Side: L R, LFE
Sampling rate                            : 48.0 KHz
Bit depth                                : 16 bits
Compression mode                         : Lossy
Stream size                              : 604 MiB (8%)
Title                                    : Dub | DD 5.1 @ 640 kbps - Blu-ray CEE
Language                                 : Ukrainian
Default                                  : No
Forced                                   : No

Audio #7
ID                                       : 8
Format                                   : AC-3
Format/Info                              : Audio Coding 3
Mode extension                           : CM (complete main)
Codec ID                                 : A_AC3
Duration                                 : 2h 12mn
Bit rate mode                            : Constant
Bit rate                                 : 640 Kbps
Channel(s)                               : 6 channels
Channel positions                        : Front: L C R, Side: L R, LFE
Sampling rate                            : 48.0 KHz
Bit depth                                : 16 bits
Compression mode                         : Lossy
Stream size                              : 604 MiB (8%)
Title                                    : Original | DD 5.1 @ 640 kbps
Language                                 : English
Default                                  : No
Forced                                   : No

Text #1
ID                                       : 9
Format                                   : UTF-8
Codec ID                                 : S_TEXT/UTF8
Codec ID/Info                            : UTF-8 Plain Text
Title                                    : форс.
Language                                 : Russian
Default                                  : Yes
Forced                                   : No

Text #2
ID                                       : 10
Format                                   : UTF-8
Codec ID                                 : S_TEXT/UTF8
Codec ID/Info                            : UTF-8 Plain Text
Title                                    : Blu-Ray
Language                                 : Russian
Default                                  : No
Forced                                   : No

Text #3
ID                                       : 11
Format                                   : UTF-8
Codec ID                                 : S_TEXT/UTF8
Codec ID/Info                            : UTF-8 Plain Text
Title                                    : форс.
Language                                 : Ukrainian
Default                                  : No
Forced                                   : No

Text #4
ID                                       : 12
Format                                   : UTF-8
Codec ID                                 : S_TEXT/UTF8
Codec ID/Info                            : UTF-8 Plain Text
Title                                    : Blu-Ray
Language                                 : Ukrainian
Default                                  : No
Forced                                   : No

Text #5
ID                                       : 13
Format                                   : UTF-8
Codec ID                                 : S_TEXT/UTF8
Codec ID/Info                            : UTF-8 Plain Text
Title                                    : Forced
Language                                 : English
Default                                  : No
Forced                                   : No

Text #6
ID                                       : 14
Format                                   : UTF-8
Codec ID                                 : S_TEXT/UTF8
Codec ID/Info                            : UTF-8 Plain Text
Title                                    : Full
Language                                 : English
Default                                  : No
Forced                                   : No

Text #7
ID                                       : 15
Format                                   : UTF-8
Codec ID                                 : S_TEXT/UTF8
Codec ID/Info                            : UTF-8 Plain Text
Title                                    : SDH
Language                                 : English
Default                                  : No
Forced                                   : No

Text #8
ID                                       : 16
Format                                   : UTF-8
Codec ID                                 : S_TEXT/UTF8
Codec ID/Info                            : UTF-8 Plain Text
Title                                    : SDH-Colored
Language                                 : English
Default                                  : No
Forced                                   : No

Menu
00:00:00.000                             : en:Chapter 01
00:06:49.659                             : en:Chapter 02
00:13:03.574                             : en:Chapter 03
00:20:55.462                             : en:Chapter 04
00:25:48.755                             : en:Chapter 05
00:35:26.791                             : en:Chapter 06
00:46:31.955                             : en:Chapter 07
00:55:43.923                             : en:Chapter 08
01:03:59.043                             : en:Chapter 09
01:13:53.053                             : en:Chapter 10
01:20:58.436                             : en:Chapter 11
01:31:09.338                             : en:Chapter 12
01:38:37.620                             : en:Chapter 13
01:47:29.276                             : en:Chapter 14
01:55:38.222                             : en:Chapter 15
02:00:01.235                             : en:Chapter 16

pb.wtf



Скачать Великий уравнитель через торрент http://i65.fastpic.ru/big/2015/1110/46/f698bb4e0e42ea58810ae44f61329646.png Скачать фильм Великий уравнитель через торрент бесплантно в хорошем качестве Описание: Роберт МакКолл - бывший спецназовец. После увольнения со службы он собирается начать нормальную мирную жизнь, дав себе обещание ... 9.5 10 22
Info! Золотая раздача, скачанное не засчитывается.
Торрент: Зарегистрирован [2015-11-10 15:23] · скачан: 774 раз
Статус: √ проверено
Размер: 7.68 GB
Как cкачать? Как скачать Великий уравнитель через торрент | qTorrent

% Раздел Тема Автор DL S | L
Фильмы (DVD фильмы) [ 7.74 GB ] Великий уравнитель 2 / The Equalizer 2 [2018 DVD9 ] + [AVO] killermax2013 Скачать
2 | 0
Ultra HD (UHD: 2K, 4K, 8K) — видео сверхвысокой чёткости [ 26.32 GB ] Великий уравнитель 2 / The Equalizer 2 [2018 UHD BDRip 2160p] [SDR] DUB + AVO [Дмитрий Есарев] sheker187 Скачать
2 | 0
Фильмы [HD 720p, 1080p] (Хороший звук DUB, MVO) [ 12.25 GB ] Великий уравнитель 2 / The Equalizer 2 [2018 BDRip 1080p] DUB + AVO [Д. Есарев] sheker187 Скачать
1 | 0
Ultra HD (UHD: 2K, 4K, 8K) — видео сверхвысокой чёткости [ 14.37 GB ] Великий уравнитель 2 / The Equalizer 2 [2018 UHD BDRip 2160p] DUB + AVO [Дмитрий Есарев] sheker187 Скачать
2 | 0
Фильмы 2018 [DVDrip, WEB-DLRip, HDrip] (DUB, MVO) [ 2.98 GB ] Великий уравнитель 2 / The Equalizer 2 [2018 BDRip-AVC] AVO - ExKinoRay Enigma2010 Скачать
3 | 0
Фильмы (Blu-ray, BD-Remux, HDDVD) [ 24.55 GB ] Великий уравнитель 2 / The Equalizer 2 [2018 BDRemux 1080p] DUB + AVO [Д. Есарев] sheker187 Скачать
1 | 0
Фильмы [HD 720p, 1080p] (Хороший звук DUB, MVO) [ 7.18 GB ] Великий уравнитель 2 / The Equalizer 2 [2018 BDRip 720p] DUB + AVO [Д. Есарев] sheker187 Скачать
2 | 0

28-11-2019 20:33  

Отключить всю рекламу на сайте

12-11-2015 12:47 Великий уравнитель Скачать торрент  

кено агонь ваще! попалил и оставил в коллекции.pb.wtf



    Дорогой пользователь! Огромная просьба, поблагодарите релизера, оцените раздачу и оставьте свои комментарий, если Вы скачали Великий уравнитель через торрент бесплатно! Внесите свою лепту в развитие PiratBit!
    Комментировать посты могут только пользователи прошедшие не сложную регистрацию
    Показать сообщения:    

    Великий уравнитель через торрент
    Скачать бесплатно Великий уравнитель
    Великий уравнитель скачать торрент
    Великий уравнитель смотреть онлайн
    Cкачать фильм Великий уравнитель бесплатно
    Великий уравнитель скачать торрент в хорошем качестве
    Великий уравнитель смотреть онлайн бесплатно в хорошем качестве


    Вы не можете начинать темы
    Вы не можете отвечать на сообщения
    Вы не можете редактировать свои сообщения
    Вы не можете удалять свои сообщения
    Вы не можете голосовать в опросах
    Вы не можете прикреплять файлы к сообщениям
    Вы можете скачивать файлы