Ссылка на приватное зеркало всего за 1$. Внимание количество ограничено!!!

iTunes

iTunes

iTunes

1

iTunes

iTunes

iTunes

iTunes

iTunes

30
pack

Новость дня

ВАЖНО

!!Акция!!

Alien_RageХит недели

RePack

Resident Evil 21

ИГРА 18+

pack

RePack

jed

!!Акция!!

Alien_Rage

RePack

fifa19

RePack

Assassins Creed: Odyssey

RePack

NEED FOR SPEED™ PAYBACK

4 сезон

9 сезон

Бесстыжие 9 сезон

Все сериалы

все сериалы на PB.wtf

RePack

FAR CRY 5
  

[Penthouse.com] Katja Kassin (Office Encounter) 3D (Penthouse.com) (Katja Kassin) [2015 г., All Sex, Oral, Gonzo, BigTits, Porn Stars, 3D, HDRip 432p] Half SideBySide pb.wtf

через торрент pb.wtf

Размер: 440 MB | Добавлен: 4 года 6 мес. назад | Торрент скачан:687 раз
Скачать  

10-11-2015 18:32 Скачать торрент  

[Penthouse.com] Katja Kassin (Office Encounter)

Год выпуска: 2015
Страна: США
Жанр: All Sex, Oral, Gonzo, BigTits, Porn Stars, 3D
Продолжительность: 00:18:51
Язык: Английский
Студия: Penthouse.com

В ролях: Katja Kassin

Описание: (Office Encounter) 3D

Формат 3D: Half SideBySide / Горизонтальная анаморфная стереопара
Качество: HDRip 432p
Формат: WMV
Видео кодек: Windows Media
Аудио кодек: WMA
Видео: Windows Media Audio 2 768х432 16/9 29970 fps 3097 kbps avg
Аудио: WMA 8 48000Hz stereo 32 kbps avg
Общее
Полное имя : Penthouse - Katja Kassin (Office Encounter) 3D\3dtbp-ph.150120.officeencounter.wmv
Формат : Windows Media
Размер файла : 440 Мбайт
Продолжительность : 18 м.
Общий поток : 3268 Кбит/сек
Максимальный общий битрейт : 3232 Кбит/сек
Дата кодирования : UTC 1970-01-01 00:00:00.000
major_brand : qt
minor_version : 537199360
compatible_brands : qt
WM/EncodingSettings : Lavf54.29.104

Видео
Идентификатор : 1
Формат : WMV2
Идентификатор кодека : WMV2
Идентификатор кодека/Информация : Windows Media Video 8
Описание кодека : wmv2
Продолжительность : 18 м.
Битрейт : 3097 Кбит/сек
Ширина : 768 пикселей
Высота : 432 пикселя
Соотношение сторон : 16:9
Частота кадров : 29,970 кадров/сек
Битовая глубина : 8 бит
Бит/(Пиксели*Кадры) : 0.312
Размер потока : 417 Мбайт (95%)

Аудио
Идентификатор : 2
Формат : WMA
Версия формата : Version 2
Идентификатор кодека : 161
Идентификатор кодека/Информация : Windows Media Audio
Описание кодека : Windows Media Audio V8
Продолжительность : 18 м.
Битрейт : 32,0 Кбит/сек
Каналы : 1 канал
Частота : 48,0 КГц
Битовая глубина : 16 бит
Размер потока : 4,31 Мбайт (1%)[/code]

pb.wtf



pack Скачать через торрент http://i67.fastpic.ru/big/2015/1110/18/c17bff1bb42d5506f3dd387604083818.png Скачать фильм [Penthouse.com] Katja Kassin через торрент бесплантно в хорошем качестве Описание: (Office Encounter) 3DФормат 3D: Half SideBySide / Горизонтальная анаморфная ... 10 10 11
Торрент: Зарегистрирован [2015-11-10 18:32] · скачан: 687 раз
Статус: √ проверено
Размер: 440 MB
Как cкачать? Как скачать через торрент | qTorrent

% Раздел Тема Автор DL S | L
3D Фильмы [ 16.94 GB ] Аквамен в 3Д / Aquaman 3D [2018 BDRip 1080p] DUB + MVO [HDRezka Studio] Half SideBySide sheker187 Скачать
3 | 0
3D Фильмы [ 11.64 GB ] Пятница 13-е – Часть 3 3Д / Friday the 13th Part III 3D [1982 BDRip 1080p] [Half SideBySide / Горизонтальная анаморфная стереопара] MVO [СВ-Дубль] bober100 Скачать
1 | 0
3D порно [ 89.28 GB ] / [Penthouse.com] 3D Full SiteRip [2016 3D Sex POV Lesbian Toys WEBRip 1080p] Half SideBySide / Горизонтальная анаморфная стереопара sheker187 Скачать
1 | 1
Документальные фильмы 3D [ 12.3 GB ] Итальянский калейдоскоп в 3D / 3Д [2015 Документальный HDTV] Half SideBySide / Горизонтальная анаморфная стереопара кэп Скачать
1 | 0
Документальные фильмы 3D [ 4.67 GB ] Боевые пилоты: Операция «Красный флаг» в 3Д / Fighter Pilot: Operation Red Flag 3D [2004 документальный короткометражный BDrip-AVC] IMAX VO Half SideBySide / Горизонтальная анаморфная стереопара кэп Скачать
1 | 0
Документальные фильмы 3D [ 1.88 GB ] Казань в 3Д / Kazan 3D [2015 Документальный HDTV-AVC] Half SideBySide / Горизонтальная анаморфная стереопара кэп Скачать
1 | 0
Документальные фильмы 3D [ 3.51 GB ] Вылазка в Прибалтику. Вильнюс и Рига в 3D в 3Д / 3D [2015 Документальный HDTV-AVC] Half SideBySide / Горизонтальная анаморфная стереопара кэп Скачать
1 | 0

28-11-2019 20:33  

Отключить всю рекламу на сайте

    Дорогой пользователь! Огромная просьба, поблагодарите релизера, оцените раздачу и оставьте свои комментарий, если Вы скачали через торрент бесплатно! Внесите свою лепту в развитие PiratBit!
    Комментировать посты могут только пользователи прошедшие не сложную регистрацию
    Показать сообщения:    

    через торрент
    Скачать бесплатно
    скачать торрент
    смотреть онлайн
    Cкачать фильм бесплатно
    скачать торрент в хорошем качестве
    смотреть онлайн бесплатно в хорошем качестве


    Вы не можете начинать темы
    Вы не можете отвечать на сообщения
    Вы не можете редактировать свои сообщения
    Вы не можете удалять свои сообщения
    Вы не можете голосовать в опросах
    Вы не можете прикреплять файлы к сообщениям
    Вы можете скачивать файлы