Ссылка на приватное зеркало нашего сайта всего за 1$. Внимание количество ограничено!!!

2 сезон

iTunes

1 сезон

1

2 сезон

2 сезон

iTunes

1 сезон

RePack

30

Ultimate

ВАЖНО

ИГРА 18+

pack

RePack

MK11
pack

Забери бонус

RePack

jed

!!Акция!!

Alien_Rage

RePack

fifa19

RePack

Assassins Creed: Odyssey

RePack

NEED FOR SPEED™ PAYBACK

4 сезон

9 сезон

Бесстыжие 9 сезон

Все сериалы

все сериалы на PB.wtf

RePack

FAR CRY 5
  

Банда Йонссона. Большой куш / Jönssonligan - Den perfekta stöten (Alain Darborg) [2015, боевик, комедия, криминал, DVDRip, Любительский (одноголосый) [Lord32x] pb.wtf

Банда Йонссона. Большой куш через торрент pb.wtf

Размер: 1.47 GB | Добавлен: 5 лет назад | Торрент скачан:310 раз
Скачать  

10-11-2015 19:41 Банда Йонссона. Большой куш Скачать торрент  


Банда Йонссона. Большой куш / Jönssonligan - Den perfekta stöten


ИНФОРМАЦИЯ:
Год выпуска:2015
Страна: Швеция
Жанр: боевик, комедия, криминал, приключения
Продолжительность: 01:31:30
Перевод: Любительский (одноголосый) [Lord32x]
Режиссер: Alain Darborg

В Ролях:


Александр Карим (Ragnar Vanheden), Йенс Хультен (Krantz), Сюзанна Торсон (Rocky), Торкель Петерссон (Harry), Саймон Дж. Бергер (Charles Ingvar Jönsson), Малин Леванон (Elin), Анки Ларссон (School counselor), Стефан Кронуолл (Distinguished man), Седомир Джорджевич (Rysk dörrvakt), Никлас Фальк, Alexandra Alegren (Wallentin's Secretary), Christoffer Nordenrot (Waiter at the coffee shop)

Описание:
Йонссон - мелкий мошенник, промышляющий угоном машин. Потеряв напарника, с которым проработал много лет, он решает переключиться на крупные дела. Он собирает команду из профессиональных жуликов и отправляется грабить банк...

  • Мировая премьера:12 января 2015

    ТЕХ.ДАННЫЕ:
    Качество: DVDRip
    Формат: AVI
    Видео: XviD, 720x304 (2.35:1), 1810 kbps, 24 fps, 0,345 bpp
    Аудио: AC3 / 2.0 / 48 kHz / 384 kbps / 16 bit


    General
    Complete name : D:\Торенты\Jonssonligan.Den.Perfekta.Stoten.2015.DVDRip.1500MB.Lord32x.Stidio.avi
    Format : AVI
    Format/Info : Audio Video Interleave
    File size : 1.47 GiB
    Duration : 1h 31mn
    Overall bit rate : 2 294 Kbps
    Writing application : VirtualDubMod 1.5.10.3 | www.virtualdub-fr.org || (build 2550/release)
    Writing library : VirtualDubMod build 2550/release

    Video
    ID : 0
    Format : MPEG-4 Visual
    Format profile : Advanced Simple@L5
    Format settings, BVOP : 1
    Format settings, QPel : No
    Format settings, GMC : No warppoints
    Format settings, Matrix : Default (H.263)
    Codec ID : XVID
    Codec ID/Hint : XviD
    Duration : 1h 31mn
    Bit rate : 1 810 Kbps
    Width : 720 pixels
    Height : 304 pixels
    Display aspect ratio : 2.35:1
    Frame rate : 24.000 fps
    Color space : YUV
    Chroma subsampling : 4:2:0
    Bit depth : 8 bits
    Scan type : Progressive
    Compression mode : Lossy
    Bits/(Pixel*Frame) : 0.345
    Stream size : 1.16 GiB (79%)
    Writing library : XviD 1.2.1 (UTC 2008-12-04)

    Audio
    ID : 1
    Format : AC-3
    Format/Info : Audio Coding 3
    Mode extension : CM (complete main)
    Codec ID : 2000
    Duration : 1h 31mn
    Bit rate mode : Constant
    Bit rate : 384 Kbps
    Channel(s) : 2 channels
    Channel positions : Front: L R
    Sampling rate : 48.0 KHz
    Bit depth : 16 bits
    Compression mode : Lossy
    Stream size : 251 MiB (17%)
    Alignment : Split accross interleaves
    Скриншоты:

    © Оформление by .::Ворон::.
    pb.wtf



  • Скачать Банда Йонссона. Большой куш через торрент http://pic.kartinco.top/images/6/ordi9.jpg Скачать фильм Банда Йонссона. Большой куш через торрент бесплантно в хорошем качестве Описание: Йонссон - мелкий мошенник, промышляющий угоном машин. Потеряв напарника, с которым проработал много лет, он решает переключиться ... 8.8 10 16
    Торрент: Зарегистрирован [2015-11-10 19:41] · скачан: 310 раз
    Статус: T временная
    Размер: 1.47 GB
    Как cкачать? Как скачать Банда Йонссона. Большой куш через торрент | qTorrent

    28-11-2019 20:33  

    Отключить всю рекламу на сайте

    12-11-2015 15:13 Банда Йонссона. Большой куш Скачать торрент  

    А СКАРЛЕТТА Йонссонсоновна здесь играет?)))))))pb.wtf



    12-11-2015 15:18 Банда Йонссона. Большой куш Скачать торрент  

    bolvi68, нет, откуда? читайте актеров в теме.pb.wtf



    17-11-2015 15:39 Банда Йонссона. Большой куш Скачать торрент  

    Прикольный фильм!!!pb.wtf



      Дорогой пользователь! Огромная просьба, поблагодарите релизера, оцените раздачу и оставьте свои комментарий, если Вы скачали Банда Йонссона. Большой куш через торрент бесплатно! Внесите свою лепту в развитие PiratBit!
      Комментировать посты могут только пользователи прошедшие не сложную регистрацию
      Показать сообщения:    

      Банда Йонссона. Большой куш через торрент
      Скачать бесплатно Банда Йонссона. Большой куш
      Банда Йонссона. Большой куш скачать торрент
      Банда Йонссона. Большой куш смотреть онлайн
      Cкачать фильм Банда Йонссона. Большой куш бесплатно
      Банда Йонссона. Большой куш скачать торрент в хорошем качестве
      Банда Йонссона. Большой куш смотреть онлайн бесплатно в хорошем качестве


      Вы не можете начинать темы
      Вы не можете отвечать на сообщения
      Вы не можете редактировать свои сообщения
      Вы не можете удалять свои сообщения
      Вы не можете голосовать в опросах
      Вы не можете прикреплять файлы к сообщениям
      Вы можете скачивать файлы