Ссылка на приватное зеркало нашего сайта всего за 1$. Внимание количество ограничено!!!

2 сезон

iTunes

1 сезон

1

iTunes

iTunes

iTunes

1 сезон

RePack

30

ИГРА 18+

pack

ВАЖНО

!!Акция!!

Alien_RageХит недели

RePack

MK11
pack

Забери бонус

RePack

jed

!!Акция!!

Alien_Rage

RePack

fifa19

RePack

Assassins Creed: Odyssey

RePack

NEED FOR SPEED™ PAYBACK

4 сезон

9 сезон

Бесстыжие 9 сезон

Все сериалы

все сериалы на PB.wtf

RePack

FAR CRY 5
  

Ультраамериканцы / American Ultra (Нима Нуризаде) [2015, боевик, комедия, BDRip 1080p] Дубляж] iTunes pb.wtf

Ультраамериканцы через торрент pb.wtf

Раздают: 2 [ 0 KB/s ]
Размер: 7.91 GB | Добавлен: 4 года 11 мес. назад | Торрент скачан:339 раз
Скачать  

11-11-2015 09:08 Ультраамериканцы Скачать торрент  

Ультраамериканцы / American Ultra«Нет ничего опаснее обкуренного киллера с амнезией»

  • Год выхода: 2015
  • Жанр: боевик, комедия

  • Страна: США, Швейцария
  • Продолжительность: 01:35:41
  • Перевод: Дубляж - [Лицензия / iTunes]
  • Режиссер: Нима Нуризаде
  • В ролях:

    Джесси Айзенберг (Mike Howell), Кристен Стюарт (Phoebe Larson), Тофер Грейс (Adrian Yates), Конни Бриттон (Victoria Lasseter), Уолтон Гоггинс (Laugher), Джон Легуизамо (Rose), Билл Пуллман (Krueger), Тони Хейл (Petey Douglas), Стюарт Грир (Sheriff Watts), Майкл Пападжон (Otis), Моник Гэндертон (Crane), Нэш Эдгертон (Beedle)


  • А вдруг ты тоже спецагент, обладающий уникальной боевой подготовкой и сверхинтеллектом? Но просто ты забыл об этом... Как Майк Хоуэлл, лоботряс из супермаркета, который безмятежно читает комиксы и курит дурь пока славное прошлое не настигает его. И обдолбанный агент N1 становится мишенью N1.

  • Качество: BDRip 1080p
  • Формат: MKV
  • Видео кодек: AVC
  • Аудио кодек: AC3, DTS
  • Видео: AVC, 1920x1040 (16:9), 9937 kbps, 23,976 fps, 0,208 bpp
  • Аудио №1: русский / AC3 / 5.1 / 48 kHz / 384 kbps / 16 bit |Дубляж, iTunes|
  • Аудио №2: английский / DTS / 5.1 / 48 kHz / 1510 kbps / 24 bit
  • Навигация по главам: есть

    Код:

    General
    Unique ID                                : 205117870953185261237095723974537763650 (0x9A5043D5B6D4AABFADE8636D0C83DB42)
    Complete name                            : H:\ULtr0.Pend0snya.2015.D.BDRip.1080p.mkv
    Format                                   : Matroska
    Format version                           : Version 2
    File size                                : 7.91 GiB
    Duration                                 : 1h 35mn
    Overall bit rate                         : 11.8 Mbps
    Encoded date                             : UTC 2015-11-11 02:57:39
    Writing application                      : mkvmerge v8.3.0 ('Over the Horizon') 64bit
    Writing library                          : libebml v1.3.1 + libmatroska v1.4.2

    Video
    ID                                       : 2
    Format                                   : AVC
    Format/Info                              : Advanced Video Codec
    Format profile                           : High@L4.1
    Format settings, CABAC                   : Yes
    Format settings, ReFrames                : 4 frames
    Codec ID                                 : V_MPEG4/ISO/AVC
    Duration                                 : 1h 35mn
    Bit rate                                 : 9 937 Kbps
    Width                                    : 1 920 pixels
    Height                                   : 1 040 pixels
    Display aspect ratio                     : 16:9
    Frame rate                               : 23.976 fps
    Color space                              : YUV
    Chroma subsampling                       : 4:2:0
    Bit depth                                : 8 bits
    Scan type                                : Progressive
    Bits/(Pixel*Frame)                       : 0.208
    Stream size                              : 6.48 GiB (82%)
    Writing library                          : x264 core 148 r2638 7599210
    Encoding settings                        : cabac=1 / ref=4 / deblock=1:0:0 / analyse=0x3:0x133 / me=umh / subme=7 / psy=1 / psy_rd=1.00:0.00 / mixed_ref=1 / me_range=16 / chroma_me=1 / trellis=1 / 8x8dct=1 / cqm=0 / deadzone=21,11 / fast_pskip=0 / chroma_qp_offset=-2 / threads=12 / lookahead_threads=2 / sliced_threads=0 / nr=0 / decimate=1 / interlaced=0 / bluray_compat=0 / constrained_intra=0 / bframes=3 / b_pyramid=2 / b_adapt=1 / b_bias=0 / direct=1 / weightb=1 / open_gop=0 / weightp=2 / keyint=250 / keyint_min=23 / scenecut=40 / intra_refresh=0 / rc_lookahead=40 / rc=2pass / mbtree=1 / bitrate=9937 / ratetol=1.0 / qcomp=0.60 / qpmin=0 / qpmax=69 / qpstep=4 / cplxblur=20.0 / qblur=0.5 / ip_ratio=1.40 / aq=1:1.00
    Language                                 : English
    Default                                  : Yes
    Forced                                   : No

    Audio #1
    ID                                       : 1
    Format                                   : AC-3
    Format/Info                              : Audio Coding 3
    Mode extension                           : CM (complete main)
    Codec ID                                 : A_AC3
    Duration                                 : 1h 35mn
    Bit rate mode                            : Constant
    Bit rate                                 : 384 Kbps
    Channel(s)                               : 6 channels
    Channel positions                        : Front: L C R, Side: L R, LFE
    Sampling rate                            : 48.0 KHz
    Bit depth                                : 16 bits
    Compression mode                         : Lossy
    Stream size                              : 263 MiB (3%)
    Language                                 : Russian
    Default                                  : Yes
    Forced                                   : No

    Audio #2
    ID                                       : 3
    Format                                   : DTS
    Format/Info                              : Digital Theater Systems
    Codec ID                                 : A_DTS
    Duration                                 : 1h 35mn
    Bit rate mode                            : Constant
    Bit rate                                 : 1 510 Kbps
    Channel(s)                               : 6 channels
    Channel positions                        : Front: L C R, Side: L R, LFE
    Sampling rate                            : 48.0 KHz
    Bit depth                                : 24 bits
    Compression mode                         : Lossy
    Stream size                              : 1.01 GiB (13%)
    Language                                 : English
    Default                                  : No
    Forced                                   : No

    Menu
    00:00:00.000                             : en:00:00:00.000
    00:03:47.727                             : en:00:03:47.727
    00:09:28.985                             : en:00:09:28.985
    00:16:40.583                             : en:00:16:40.583
    00:22:15.918                             : en:00:22:15.918
    00:26:45.979                             : en:00:26:45.979
    00:33:28.632                             : en:00:33:28.632
    00:37:54.230                             : en:00:37:54.230
    00:42:31.048                             : en:00:42:31.048
    00:48:55.849                             : en:00:48:55.849
    00:55:13.393                             : en:00:55:13.393
    01:00:11.274                             : en:01:00:11.274
    01:06:12.302                             : en:01:06:12.302
    01:10:14.669                             : en:01:10:14.669
    01:18:38.922                             : en:01:18:38.922
    01:25:14.693                             : en:01:25:14.693

    Скриншоты:


    © Оформление by -Lexx- pb.wtf



  • Скачать Ультраамериканцы через торрент http://pic.kartinco.top/images/6/stazu.jpg Скачать фильм Ультраамериканцы через торрент бесплантно в хорошем качестве qw.png А вдруг ты тоже спецагент, обладающий уникальной боевой подготовкой и сверхинтеллектом? Но просто ты забыл об этом... Как Майк ... 10 10 8
    Торрент: Зарегистрирован [2015-11-11 09:08] · скачан: 339 раз
    Статус: T временная
    Размер: 7.91 GB
    Как cкачать? Как скачать Ультраамериканцы через торрент | qTorrent

    % Раздел Тема Автор DL S | L
    Фильмы (Blu-ray, BD-Remux, HDDVD) [ 25.56 GB ] Ультраамериканцы / American Ultra [2015 BDRemux 1080p MihailHD Скачать
    1 | 0
    T Фильмы [HD 720p, 1080p] (Хороший звук DUB, MVO) [ 4.62 GB ] Ультраамериканцы / American Ultra [2015 BDRip 720p ] MihailHD Скачать
    1 | 0
    Фильмы 2015 [DVDrip, WEB-DLRip, HDrip] [ 1.37 GB ] Ультраамериканцы / American Ultra [2015 HDRip] killermax2013 Скачать
    1 | 0
    Фильмы (WEB-DL 720p, 1080p) [ 3.54 GB ] Ультраамериканцы / American Ultra [2015 WEB-DL 1080p ] [ Russia] Messa-fan Скачать
    1 | 0
    Фильмы 2015 [DVDrip, WEB-DLRip, HDrip] [ 1.46 GB ] Ультраамериканцы / American Ultra [2015 WEB-DLRip ] Ворон Скачать
    1 | 0
    Фильмы (WEB-DL 720p, 1080p) [ 2.93 GB ] Ультраамериканцы / American Ultra [2015 WEB-DL 720p ] Ворон Скачать
    1 | 0
    Фильмы 2015 [DVDrip, WEB-DLRip, HDrip] [ 1.46 GB ] Ультраамериканцы / American Ultra [2015 WEB-DLRip ] Twi7ter Скачать
    1 | 0

    28-11-2019 20:33  

    Отключить всю рекламу на сайте

      Дорогой пользователь! Огромная просьба, поблагодарите релизера, оцените раздачу и оставьте свои комментарий, если Вы скачали Ультраамериканцы через торрент бесплатно! Внесите свою лепту в развитие PiratBit!
      Комментировать посты могут только пользователи прошедшие не сложную регистрацию
      Показать сообщения:    

      Ультраамериканцы через торрент
      Скачать бесплатно Ультраамериканцы
      Ультраамериканцы скачать торрент
      Ультраамериканцы смотреть онлайн
      Cкачать фильм Ультраамериканцы бесплатно
      Ультраамериканцы скачать торрент в хорошем качестве
      Ультраамериканцы смотреть онлайн бесплатно в хорошем качестве


      Вы не можете начинать темы
      Вы не можете отвечать на сообщения
      Вы не можете редактировать свои сообщения
      Вы не можете удалять свои сообщения
      Вы не можете голосовать в опросах
      Вы не можете прикреплять файлы к сообщениям
      Вы можете скачивать файлы