Ссылка на приватное зеркало нашего сайта всего за 1$. Внимание количество ограничено!!!

2 сезон

iTunes

1 сезон

1

iTunes

iTunes

iTunes

1 сезон

RePack

30

ИГРА 18+

pack

ВАЖНО

!!Акция!!

Alien_RageХит недели

RePack

MK11
pack

Забери бонус

RePack

jed

!!Акция!!

Alien_Rage

RePack

fifa19

RePack

Assassins Creed: Odyssey

RePack

NEED FOR SPEED™ PAYBACK

4 сезон

9 сезон

Бесстыжие 9 сезон

Все сериалы

все сериалы на PB.wtf

RePack

FAR CRY 5
  

Побег из Гулага / So weit die Füße tragen (Харди Мартинс) [2001, боевик, драма, приключения, BDRip 1080p] Профессиональный (двухголосый) pb.wtf

Побег из Гулага через торрент pb.wtf

Размер: 13.81 GB | Добавлен: 4 года 11 мес. назад | Торрент скачан:138 раз
Скачать  

11-11-2015 11:07 Побег из Гулага Скачать торрент  

Побег из Гулага / So weit die Füße tragen«Три года он шел через всю Сибирь и Среднюю Азию. Он преодолел 14 тысяч километров, и каждый шаг мог стать для него последним»

  • Год выхода: 2001
  • Жанр: боевик, драма, приключения, военный

  • Страна: Германия
  • Продолжительность: 02:38:47
  • Перевод: Профессиональный (двухголосый)
  • Cубтитры: русские, английские
  • Режиссер: Харди Мартинс
  • В ролях:

    Бернхард Беттерман (Clemens Forell), Ирис Бём (Kathrin Forell), Анатолий Котенёв (Oberleutnant Kamenev), Михаэль Мендль (Dr. Stauffer), Ирина Пантаева (Irina), Ханс-Уве Бауэр (Leibrecht), Андре Хеннике (Bauknecht), Антонио Ваннек (Mattern), Йоханнес Хицблех (Danhorn), Штефан Вольф-Шёнбург (Klugmann), Ирина Нарбекова (Dr. Pachmutova), Павел Лебешев (Lagerkommandant)


  • Немецкий военнопленный Клеменс Форелль был приговорен к заключению на Колыме. Проработав четыре года на шахтах, он в 1949 году бежал из лагеря.
    По пятам преследуемый НКВД, осознавая, что каждый следующий шаг может стать для него последним, он шел через всю Сибирь и Среднюю Азию к иранской границе. 14 тысяч километров и три бесконечных года, проведенных в странствиях, не смогли сломить его стремление к свободе...

  • Качество: BDRip 1080p
  • Формат: MKV
  • Видео кодек: AVC
  • Аудио кодек: AC3
  • Видео: AVC, 1920x1040 (16:9), 11179 kbps, 23,976 fps, 0,234 bpp
  • Аудио №1: русский / AC3 / 5.1 / 48 kHz / 384 kbps / 16 bit |DVO|
  • Аудио №2: немецкий / AC3 / 5.1 / 48 kHz / 640 kbps / 16 bit

    Код:

    General
    Unique ID                                : 195026615331300422251218059975540689317 (0x92B8C284FFC0C81A1AE135E2F4A149A5)
    Complete name                            : H:\Pobeg.iz.Gulaga.2001.BDRip.1080p.mkv
    Format                                   : Matroska
    Format version                           : Version 2
    File size                                : 13.8 GiB
    Duration                                 : 2h 38mn
    Overall bit rate                         : 12.5 Mbps
    Movie name                               : So weit die Fu?e tragen
    Encoded date                             : UTC
    Writing application                      : HandBrake 0.10.2 2015060900
    Writing library                          : Lavf55.12.0

    Video
    ID                                       : 1
    Format                                   : AVC
    Format/Info                              : Advanced Video Codec
    Format profile                           : High@L4.1
    Format settings, CABAC                   : Yes
    Format settings, ReFrames                : 4 frames
    Codec ID                                 : V_MPEG4/ISO/AVC
    Duration                                 : 2h 38mn
    Bit rate                                 : 11.2 Mbps
    Nominal bit rate                         : 11.8 Mbps
    Width                                    : 1 920 pixels
    Height                                   : 1 040 pixels
    Display aspect ratio                     : 16:9
    Frame rate mode                          : Variable
    Frame rate                               : 23.976 fps
    Color space                              : YUV
    Chroma subsampling                       : 4:2:0
    Bit depth                                : 8 bits
    Scan type                                : Progressive
    Bits/(Pixel*Frame)                       : 0.234
    Stream size                              : 12.4 GiB (90%)
    Writing library                          : x264 core 142 r2479 dd79a61
    Encoding settings                        : cabac=1 / ref=4 / deblock=1:-3:-3 / analyse=0x3:0x113 / me=umh / subme=8 / psy=1 / psy_rd=2.00:0.70 / mixed_ref=1 / me_range=16 / chroma_me=1 / trellis=1 / 8x8dct=1 / cqm=0 / deadzone=21,11 / fast_pskip=1 / chroma_qp_offset=-4 / threads=12 / lookahead_threads=2 / sliced_threads=0 / nr=0 / decimate=1 / interlaced=0 / bluray_compat=0 / constrained_intra=0 / bframes=3 / b_pyramid=2 / b_adapt=2 / b_bias=0 / direct=3 / weightb=1 / open_gop=0 / weightp=2 / keyint=240 / keyint_min=24 / scenecut=40 / intra_refresh=0 / rc_lookahead=50 / rc=abr / mbtree=1 / bitrate=11750 / ratetol=1.0 / qcomp=0.60 / qpmin=0 / qpmax=69 / qpstep=4 / vbv_maxrate=62500 / vbv_bufsize=78125 / nal_hrd=none / filler=0 / ip_ratio=1.40 / aq=1:1.20
    Default                                  : Yes
    Forced                                   : No
    Color primaries                          : BT.709-5, BT.1361, IEC 61966-2-4, SMPTE RP177
    Transfer characteristics                 : BT.709-5, BT.1361
    Matrix coefficients                      : BT.709-5, BT.1361, IEC 61966-2-4 709, SMPTE RP177

    Audio #1
    ID                                       : 2
    Format                                   : AC-3
    Format/Info                              : Audio Coding 3
    Mode extension                           : CM (complete main)
    Codec ID                                 : A_AC3
    Duration                                 : 2h 38mn
    Bit rate mode                            : Constant
    Bit rate                                 : 384 Kbps
    Channel(s)                               : 6 channels
    Channel positions                        : Front: L C R, Side: L R, LFE
    Sampling rate                            : 48.0 KHz
    Bit depth                                : 16 bits
    Compression mode                         : Lossy
    Stream size                              : 436 MiB (3%)
    Title                                    : Surround
    Language                                 : Russian
    Default                                  : Yes
    Forced                                   : No

    Audio #2
    ID                                       : 3
    Format                                   : AC-3
    Format/Info                              : Audio Coding 3
    Mode extension                           : CM (complete main)
    Codec ID                                 : A_AC3
    Duration                                 : 2h 38mn
    Bit rate mode                            : Constant
    Bit rate                                 : 640 Kbps
    Channel(s)                               : 6 channels
    Channel positions                        : Front: L C R, Side: L R, LFE
    Sampling rate                            : 48.0 KHz
    Bit depth                                : 16 bits
    Compression mode                         : Lossy
    Delay relative to video                  : 1mn 5s
    Stream size                              : 727 MiB (5%)
    Title                                    : Surround
    Language                                 : German
    Default                                  : No
    Forced                                   : No

    Text #1
    ID                                       : 4
    Format                                   : ASS
    Codec ID                                 : S_TEXT/ASS
    Codec ID/Info                            : Advanced Sub Station Alpha
    Compression mode                         : Lossless
    Language                                 : Russian
    Default                                  : No
    Forced                                   : No

    Text #2
    ID                                       : 5
    Format                                   : ASS
    Codec ID                                 : S_TEXT/ASS
    Codec ID/Info                            : Advanced Sub Station Alpha
    Compression mode                         : Lossless
    Language                                 : English
    Default                                  : No
    Forced                                   : No

    Скриншоты:


    © Оформление by -Lexx- pb.wtf



  • Скачать Побег из Гулага через торрент http://pic.kartinco.top/images/6/stazu.jpg Скачать фильм Побег из Гулага через торрент бесплантно в хорошем качестве qw.png Немецкий военнопленный Клеменс Форелль был приговорен к заключению на Колыме. Проработав четыре года на шахтах, он в 1949 году ... 6.8 10 15
    Info! Золотая раздача, скачанное не засчитывается.
    Торрент: Зарегистрирован [2015-11-11 11:07] · скачан: 138 раз
    Статус: √ проверено
    Размер: 13.81 GB
    Как cкачать? Как скачать Побег из Гулага через торрент | qTorrent

    % Раздел Тема Автор DL S | L
    Фильмы 2001-2005 [ 2.18 GB ] Побег из Гулага / So weit die Füße tragen [2001 BDRip] MVO koenig Скачать
    1 | 0

    28-11-2019 20:33  

    Отключить всю рекламу на сайте

    12-11-2015 15:14 Побег из Гулага Скачать торрент  

    весьма интересно. довольно драматично и можно даже сказать-слёзно.
    однако советую погрустить над этими картинами-"иди и смотри", "судьба человека","дважды рождённый".
    а так всё по делу-тот же концлагерь, те же призывы Arbeite mach frei,
    НО без газовых камер и печей. Jedem das seine.
    рекомендую к просмотру после просмотра указанных выше фильмовpb.wtf



    14-11-2015 14:17 Побег из Гулага Скачать торрент  

    mrAmerica писал(а):

    весьма интересно. довольно драматично и можно даже сказать-слёзно.
    однако советую погрустить над этими картинами-"иди и смотри", "судьба человека","дважды рождённый".
    а так всё по делу-тот же концлагерь, те же призывы Arbeite mach frei,
    НО без газовых камер и печей. Jedem das seine.
    рекомендую к просмотру после просмотра указанных выше фильмов

    Все верноpb.wtf



      Дорогой пользователь! Огромная просьба, поблагодарите релизера, оцените раздачу и оставьте свои комментарий, если Вы скачали Побег из Гулага через торрент бесплатно! Внесите свою лепту в развитие PiratBit!
      Комментировать посты могут только пользователи прошедшие не сложную регистрацию
      Показать сообщения:    

      Побег из Гулага через торрент
      Скачать бесплатно Побег из Гулага
      Побег из Гулага скачать торрент
      Побег из Гулага смотреть онлайн
      Cкачать фильм Побег из Гулага бесплатно
      Побег из Гулага скачать торрент в хорошем качестве
      Побег из Гулага смотреть онлайн бесплатно в хорошем качестве


      Вы не можете начинать темы
      Вы не можете отвечать на сообщения
      Вы не можете редактировать свои сообщения
      Вы не можете удалять свои сообщения
      Вы не можете голосовать в опросах
      Вы не можете прикреплять файлы к сообщениям
      Вы можете скачивать файлы