Ссылка на приватное зеркало нашего сайта всего за 1$. Внимание количество ограничено!!!

2 сезон

iTunes

1 сезон

1

iTunes

iTunes

iTunes

1 сезон

RePack

30

ИГРА 18+

pack

ВАЖНО

!!Акция!!

Alien_RageХит недели

RePack

MK11
pack

Забери бонус

RePack

jed

!!Акция!!

Alien_Rage

RePack

fifa19

RePack

Assassins Creed: Odyssey

RePack

NEED FOR SPEED™ PAYBACK

4 сезон

9 сезон

Бесстыжие 9 сезон

Все сериалы

все сериалы на PB.wtf

RePack

FAR CRY 5
  

Катастрофа / Blue Ruin (Джереми Солнье / Jeremy Saulnier) [2013, триллер, драма, криминал, BDRip 720p от potroks] MVO, AVO pb.wtf

Катастрофа через торрент pb.wtf

Размер: 3.74 GB | Добавлен: 4 года 11 мес. назад | Торрент скачан:205 раз
Скачать  

11-11-2015 15:49 Катастрофа Скачать торрент  

Катастрофа / Blue Ruin
«Revenge comes home»
Год выпуска: 2013
Страна: США, Франция / Film Science, Neighborhood Watch...
Жанр: триллер, драма, криминал
Продолжительность: 01:30:23
Перевод#1: Профессиональный многоголосый [НТВ]
Перевод#2: Авторский (одноголосый) [С.Визгунов]
Субтитры: русские (Notabenoid), русские, английские (Full), английские (SDH)
Навигация по главам: есть
Режиссер: Джереми Солнье / Jeremy Saulnier
В ролях:

Мэйкон Блэр (Dwight), Девин Рэтрей (Ben Gaffney), Эми Харгривз (Sam), Кевин Колак (Teddy Cleland), Ив Плам (Kris Cleland), Дэвид В. Томпсон (William), Brent Werzner (Carl Cleland), Стэйси Рок (Hope Cleland), Сидне Андерсон (Officer Eddy), Бонни Джонсон (Margaret), Daniel L. Kelly (Large Man), Ydaiber Orozco (Amanda)
Описание: Спокойная жизнь таинственного затворника переворачивается с ног на голову, когда он возвращается туда, где провел детство, желая отомстить. Он ввязывается в жестокую борьбу, чтобы защитить свою семью...

Качество: BDRip 720p
Формат: MKV
Видео кодек: AVC
Аудио кодек: AC3
Видео: 1280x536 (2.40:1), 4453 kbps, 23,976 fps, 0,271 bit/pixel
Аудио №1: AC3 / 2.0 / 48 kHz / 192 kbps / 16 bit | MVO - НТВ
Аудио №2: AC3 / 5.1 / 48 kHz / 640 kbps / 16 bit | AVO - С.Визгунов
Аудио №3: AC3 / 5.1 / 48 kHz / 640 kbps / 16 bit | ENG

Релиз группы:
Автор рипа: potroks

Код:

General
Unique ID                                : 226488426216164149222513603856535180876 (0xAA64158ED4D9DF7BBEB49E8F9FE4D64C)
Complete name                            : Katastrofa.2013.MVO.AVO.ENG.BDRip.720p.-HELLYWOOD.mkv
Format                                   : Matroska
Format version                           : Version 4 / Version 2
File size                                : 3.74 GiB
Duration                                 : 1h 30mn
Overall bit rate                         : 5 923 Kbps
Movie name                               : Blue Ruin (2013) - HELLYWOOD
Encoded date                             : UTC 2015-11-10 17:22:49
Writing application                      : mkvmerge v5.8.0 ('No Sleep / Pillow') built on Sep 30 2012 10:57:14
Writing library                          : XviD4PSP 6.0 / 54.29.105

Video
ID                                       : 1
Format                                   : AVC
Format/Info                              : Advanced Video Codec
Format profile                           : High@L4.1
Format settings, CABAC                   : Yes
Format settings, ReFrames                : 8 frames
Codec ID                                 : V_MPEG4/ISO/AVC
Duration                                 : 1h 30mn
Bit rate                                 : 4 453 Kbps
Width                                    : 1 280 pixels
Height                                   : 536 pixels
Display aspect ratio                     : 2.40:1
Frame rate mode                          : Variable
Frame rate                               : 23.976 fps
Color space                              : YUV
Chroma subsampling                       : 4:2:0
Bit depth                                : 8 bits
Scan type                                : Progressive
Bits/(Pixel*Frame)                       : 0.271
Stream size                              : 2.74 GiB (73%)
Title                                    : potroks
Writing library                          : x264 core 128 r2216M 198a7ea
Encoding settings                        : cabac=1 / ref=9 / deblock=1:-3:-3 / analyse=0x3:0x133 / me=umh / subme=11 / psy=1 / psy_rd=0.96:0.00 / mixed_ref=1 / me_range=48 / chroma_me=1 / trellis=2 / 8x8dct=1 / cqm=0 / deadzone=21,11 / fast_pskip=0 / chroma_qp_offset=-2 / threads=10 / lookahead_threads=1 / sliced_threads=0 / nr=0 / decimate=1 / interlaced=0 / bluray_compat=0 / constrained_intra=0 / bframes=10 / b_pyramid=1 / b_adapt=2 / b_bias=0 / direct=3 / weightb=1 / open_gop=0 / weightp=2 / keyint=250 / keyint_min=23 / scenecut=40 / intra_refresh=0 / rc_lookahead=40 / rc=2pass / mbtree=0 / bitrate=4453 / ratetol=1.0 / qcomp=0.70 / qpmin=0 / qpmax=69 / qpstep=4 / cplxblur=20.0 / qblur=0.5 / vbv_maxrate=62500 / vbv_bufsize=62500 / nal_hrd=none / ip_ratio=1.40 / pb_ratio=1.30 / aq=1:0.85
Language                                 : English
Default                                  : Yes
Forced                                   : No

Audio #1
ID                                       : 2
Format                                   : AC-3
Format/Info                              : Audio Coding 3
Mode extension                           : CM (complete main)
Codec ID                                 : A_AC3
Duration                                 : 1h 30mn
Bit rate mode                            : Constant
Bit rate                                 : 192 Kbps
Channel(s)                               : 2 channels
Channel positions                        : Front: L R
Sampling rate                            : 48.0 KHz
Bit depth                                : 16 bits
Compression mode                         : Lossy
Stream size                              : 124 MiB (3%)
Title                                    : MVO | DD 2.0 @ 192 kbps - NTV
Language                                 : Russian
Default                                  : Yes
Forced                                   : Yes

Audio #2
ID                                       : 3
Format                                   : AC-3
Format/Info                              : Audio Coding 3
Mode extension                           : CM (complete main)
Codec ID                                 : A_AC3
Duration                                 : 1h 30mn
Bit rate mode                            : Constant
Bit rate                                 : 640 Kbps
Channel(s)                               : 6 channels
Channel positions                        : Front: L C R, Side: L R, LFE
Sampling rate                            : 48.0 KHz
Bit depth                                : 16 bits
Compression mode                         : Lossy
Stream size                              : 414 MiB (11%)
Title                                    : AVO | DD 5.1 @ 640 kbps - S.Vizgunov
Language                                 : Russian
Default                                  : No
Forced                                   : No

Audio #3
ID                                       : 4
Format                                   : AC-3
Format/Info                              : Audio Coding 3
Mode extension                           : CM (complete main)
Codec ID                                 : A_AC3
Duration                                 : 1h 30mn
Bit rate mode                            : Constant
Bit rate                                 : 640 Kbps
Channel(s)                               : 6 channels
Channel positions                        : Front: L C R, Side: L R, LFE
Sampling rate                            : 48.0 KHz
Bit depth                                : 16 bits
Compression mode                         : Lossy
Stream size                              : 414 MiB (11%)
Title                                    : Original | DD 5.1 @ 640 kbps
Language                                 : English
Default                                  : No
Forced                                   : No

Text #1
ID                                       : 5
Format                                   : UTF-8
Codec ID                                 : S_TEXT/UTF8
Codec ID/Info                            : UTF-8 Plain Text
Title                                    : Notabenoid
Language                                 : Russian
Default                                  : No
Forced                                   : No

Text #2
ID                                       : 6
Format                                   : UTF-8
Codec ID                                 : S_TEXT/UTF8
Codec ID/Info                            : UTF-8 Plain Text
Language                                 : Russian
Default                                  : No
Forced                                   : No

Text #3
ID                                       : 7
Format                                   : UTF-8
Codec ID                                 : S_TEXT/UTF8
Codec ID/Info                            : UTF-8 Plain Text
Title                                    : Full
Language                                 : English
Default                                  : No
Forced                                   : No

Text #4
ID                                       : 8
Format                                   : UTF-8
Codec ID                                 : S_TEXT/UTF8
Codec ID/Info                            : UTF-8 Plain Text
Title                                    : SDH
Language                                 : English
Default                                  : No
Forced                                   : No

Menu
00:00:00.000                             : en:(01)00:00:00:000
00:04:17.257                             : en:(02)00:04:17:257
00:09:38.369                             : en:(03)00:09:38:369
00:16:02.419                             : en:(04)00:16:02:419
00:23:38.375                             : en:(05)00:23:38:375
00:32:14.766                             : en:(06)00:32:14:766
00:40:52.533                             : en:(07)00:40:52:533
00:47:29.263                             : en:(08)00:47:29:263
00:55:07.262                             : en:(09)00:55:07:262
01:03:16.834                             : en:(10)01:03:16:834
01:08:04.371                             : en:(11)01:08:04:371
01:13:17.684                             : en:(12)01:13:17:684
01:18:36.378                             : en:(13)01:18:36:378
01:26:04.158                             : en:(14)01:26:04:158

pb.wtf



Скачать Катастрофа через торрент http://i65.fastpic.ru/big/2015/1111/06/26324317af68dcd6916ee68f356e0a06.png Скачать фильм Катастрофа через торрент бесплантно в хорошем качестве Описание: Спокойная жизнь таинственного затворника переворачивается с ног на голову, когда он возвращается туда, где провел детство, желая ... 9.6 10 8
Info! Золотая раздача, скачанное не засчитывается.
Торрент: Зарегистрирован [2015-11-11 15:49] · скачан: 205 раз
Статус: √ проверено
Размер: 3.74 GB
Как cкачать? Как скачать Катастрофа через торрент | qTorrent

28-11-2019 20:33  

Отключить всю рекламу на сайте

    Дорогой пользователь! Огромная просьба, поблагодарите релизера, оцените раздачу и оставьте свои комментарий, если Вы скачали Катастрофа через торрент бесплатно! Внесите свою лепту в развитие PiratBit!
    Комментировать посты могут только пользователи прошедшие не сложную регистрацию
    Показать сообщения:    

    Катастрофа через торрент
    Скачать бесплатно Катастрофа
    Катастрофа скачать торрент
    Катастрофа смотреть онлайн
    Cкачать фильм Катастрофа бесплатно
    Катастрофа скачать торрент в хорошем качестве
    Катастрофа смотреть онлайн бесплатно в хорошем качестве


    Вы не можете начинать темы
    Вы не можете отвечать на сообщения
    Вы не можете редактировать свои сообщения
    Вы не можете удалять свои сообщения
    Вы не можете голосовать в опросах
    Вы не можете прикреплять файлы к сообщениям
    Вы можете скачивать файлы