Мега распродажа FORZA HORIZON 4 ULTIMATE+ВСЕ DLC+ОНЛАЙН всего за 499р. 349 руб. (супер цена). Внимание количество ограничено!!!

iTunes

1+1

iTunes

мы

iTunes

1

1 сезон

Чернобыль

1 сезон

Ральф против интернета

Лицензия

ПШазам

8 сезон

Игра престолов

Лицензия

30
pack

ВАЖНО

!!Акция!!

Alien_RageХит недели

RePack

Resident Evil 21

ИГРА 18+

pack

RePack

Metro:Exodus

!!Акция!!

Alien_Rage

RePack

fifa19

RePack

Assassins Creed: Odyssey

RePack

NEED FOR SPEED™ PAYBACK

3 сезон

9 сезон

Бесстыжие 9 сезон

Все сериалы

все сериалы на PB.wtf

RePack

FAR CRY 5
Ребята, катастрофически не хватает 2730р. для оплаты серверов за ИЮНЬ (всвязи с блокировками трафик упал в 3 раза), 1-2р., выручайте.
  

Способная ученица / Teacher's Pet (Маркус Шпигель ) [2000, ужасы, триллер, DVDRip, Профессиональный (многоголосый) Ракурс] pb.wtf

Способная ученица через торрент pb.wtf

Размер: 1.31 GB | Добавлен: 3 года 8 мес. назад | Торрент скачан:36 раз
Скачать  

11-11-2015 18:58 Способная ученица Скачать торрент  

Способная ученица / Teacher's Pet
Год выпуска: 2000
Страна: Канада, США
Жанр: ужасы, триллер
Продолжительность: 01:32:30
Перевод: Профессиональный (многоголосый) Ракурс
Режиссер: Маркус Шпигель
В ролях:

Джоди Лин О’Киф (Debbie Strand), Хсу Гарсиа (Sam Deckner), Кэтерин Кендалл (Carla Briggs), Джинетт Брокс (Laney), Кристиана Фрэнк (Sydney Hollings), Тодд Роберт Андерсон (Deputy Toby Taylor), Билл Грэттон (Sheriff Bill Taylor), Сара Ланкастер (Tracy Carley), Рел Хант (Buddy Lyle), Фрэнк Нун (Drunk), Тодд МакКи (Jim Sykes), Венди Уортингтон (Nurse Bates)
Описание:
Она очаровательна, романтична и убийственно хороша. В тихом маленьком университетском городке появилась новая студентка по имени Трейси.
Познакомившись с молодым красивым преподавателем литературы Сэмом Декером, она безумно в него влюбилась. А эта девушка из тех, кто добивается своего любой ценой. Тем более, что на самом деле ее зовут вовсе не Трейси, а Дебби. И она сбежала из тюремной «психушки», убив подобравшую ее по дороге богатую студентку и присвоив себе деньги, машину и личность настоящей Трейси. И теперь Дебби готова уничтожить любого, кто может угрожать ее романтическим планам.
Несмотря на опасность разоблачения, она окончательно теряет голову и устраивает засаду в квартире Сэма, надеясь объясниться с ним в любви...
Рейтинг:

MPAA: R - Лицам до 17 лет обязательно присутствие взрослого
Качество: DVDRip
Формат: AVI
Видео: XviD, 704x544 (1.294), 1634 kbps, 23,976 fps, 0,178 bpp
Аудио №1: AC3 / 2.0 / 48 kHz / 192 kbps / 16 bit Русский
Аудио №2: AC3 / 2.0 / 48 kHz / 192 kbps / 16 bit Английский

Код:

General
Complete name                            : D:\download\Способная ученица.avi
Format                                   : AVI
Format/Info                              : Audio Video Interleave
File size                                : 1.31 GiB
Duration                                 : 1h 32mn
Overall bit rate                         : 2 032 Kbps
Writing application                      : VirtualDubModRus 1.5.10.2 (build 2542/release)
Writing library                          : VirtualDubMod build 2542/release

Video
ID                                       : 0
Format                                   : MPEG-4 Visual
Format profile                           : Advanced Simple@L5
Format settings, BVOP                    : 2
Format settings, QPel                    : No
Format settings, GMC                     : No warppoints
Format settings, Matrix                  : Default (MPEG)
Codec ID                                 : XVID
Codec ID/Hint                            : XviD
Duration                                 : 1h 32mn
Bit rate                                 : 1 634 Kbps
Width                                    : 704 pixels
Height                                   : 544 pixels
Display aspect ratio                     : 1.294
Frame rate                               : 23.976 fps
Color space                              : YUV
Chroma subsampling                       : 4:2:0
Bit depth                                : 8 bits
Scan type                                : Progressive
Compression mode                         : Lossy
Bits/(Pixel*Frame)                       : 0.178
Stream size                              : 1.06 GiB (80%)
Writing library                          : XviD 1.2.1 (UTC 2008-12-04)

Audio #1
ID                                       : 1
Format                                   : AC-3
Format/Info                              : Audio Coding 3
Mode extension                           : CM (complete main)
Codec ID                                 : 2000
Duration                                 : 1h 32mn
Bit rate mode                            : Constant
Bit rate                                 : 192 Kbps
Channel(s)                               : 2 channels
Channel positions                        : Front: L R
Sampling rate                            : 48.0 KHz
Bit depth                                : 16 bits
Compression mode                         : Lossy
Stream size                              : 127 MiB (9%)
Alignment                                : Split accross interleaves
Interleave, duration                     : 42 ms (1.00 video frame)
Interleave, preload duration             : 500 ms

Audio #2
ID                                       : 2
Format                                   : AC-3
Format/Info                              : Audio Coding 3
Mode extension                           : CM (complete main)
Codec ID                                 : 2000
Duration                                 : 1h 32mn
Bit rate mode                            : Constant
Bit rate                                 : 192 Kbps
Channel(s)                               : 2 channels
Channel positions                        : Front: L R
Sampling rate                            : 48.0 KHz
Bit depth                                : 16 bits
Compression mode                         : Lossy
Stream size                              : 127 MiB (9%)
Alignment                                : Split accross interleaves
Interleave, duration                     : 42 ms (1.00 video frame)
Interleave, preload duration             : 500 ms

скриншот  скриншот  скриншот  
pb.wtf



Скачать Способная ученица через торрент http://pic1.kartinco.top/images/10/myccd.jpg Скачать фильм Способная ученица через торрент бесплантно в хорошем качестве Описание: Она очаровательна, романтична и убийственно хороша. В тихом маленьком университетском городке появилась новая студентка по имени ... 10 10 4
Торрент: Зарегистрирован [2015-11-11 18:58] · скачан: 36 раз
Статус: √ проверено
Размер: 1.31 GB
Как cкачать? Как скачать Способная ученица через торрент | qTorrent


>> Регистрируемся здесь <<






Отзывы и комментарии о схеме читаем и пишем здесь: ---> Отзывы и комментарии о схеме

Новые благодарочки в телеграм довольных пользователей:
скриншот   скриншот   скриншот   скриншот   скриншот
    Дорогой пользователь! Огромная просьба, поблагодарите релизера, оцените раздачу и оставьте свои комментарий, если Вы скачали Способная ученица через торрент бесплатно! Внесите свою лепту в развитие PiratBit!
    Комментировать посты могут только пользователи прошедшие не сложную регистрацию
    Показать сообщения:    

    Способная ученица через торрент
    Скачать бесплатно Способная ученица
    Способная ученица скачать торрент
    Способная ученица смотреть онлайн
    Cкачать фильм Способная ученица бесплатно
    Способная ученица скачать торрент в хорошем качестве
    Способная ученица смотреть онлайн бесплатно в хорошем качестве


    Вы не можете начинать темы
    Вы не можете отвечать на сообщения
    Вы не можете редактировать свои сообщения
    Вы не можете удалять свои сообщения
    Вы не можете голосовать в опросах
    Вы не можете прикреплять файлы к сообщениям
    Вы можете скачивать файлы