новый адрес
Ссылка на приватное зеркало всего за 1$. Внимание количество ограничено!!!

iTunes

1+1

iTunes

мы

iTunes

1

iTunes

Чернобыль

iTunes

Ральф против интернета

Лицензия

ПШазам

Лицензия

Оно 2

Лицензия

30
pack

Вам бонус

ВАЖНО

!!Акция!!

Alien_RageХит недели

RePack

Resident Evil 21

ИГРА 18+

pack

RePack

jed

!!Акция!!

Alien_Rage

RePack

fifa19

RePack

Assassins Creed: Odyssey

RePack

NEED FOR SPEED™ PAYBACK

3 сезон

9 сезон

Бесстыжие 9 сезон

Все сериалы

все сериалы на PB.wtf

RePack

FAR CRY 5
Ребята, катастрофически не хватает 1900р. для оплаты серверов за Октябрь (всвязи с блокировками трафик упал в 3 раза), 1-2р., выручайте.
  

Трое суток после бессмертия (Владимир Довгань) [1963, СССР, военный, история, DVDRip от AVP Studio] pb.wtf

Трое суток после бессмертия через торрент pb.wtf

Размер: 1.09 GB | Добавлен: 4 года назад | Торрент скачан:32 раза
Скачать  

12-11-2015 10:35 Трое суток после бессмертия Скачать торрент  

Трое суток после бессмертия
Страна: СССР
Производство: Киностудия им. А. Довженко

Жанр: военный, история
Год выпуска: 1963
Продолжительность: 01:20:23

Перевод: Не требуется
Cубтитры: нет
Оригинальная аудиодорожка: русский

Режиссер: Владимир Довгань

В ролях:
Владимир Заманский, Николай Крюков, Георгий Юматов, Геннадий Юхтин, Александр Мовчан, Галина Ляпина, Лилия Калачева, Альберт Акчурин, Леонид Данчишин, Михаил Семенихин, Генаят Кенжехан-Улы, Сергей Кулинич, Виктор Колодный, Валерий Мышастый, Ира Пухтеева, Витя Власов, Лилия Дзюба...
Полный список актёров

Описание:
Идет 250-й день обороны Севастополя. На окраине разбомбленного города, без рации и с горсткой боеприпасов, из последних сил держатся 12 бойцов Советской армии. С ними в укрытии — раненые, женщины и дети. Сообщение Совинформбюро о том, что Севастополь оставлен советскими войсками, открывает им суровую правду — теперь они один на один с врагом. Их единственная надежда — пробиться к морю, но какой ценой дастся доблестным солдатам путь из огненного ада длиной в четыре героических дня?

Источник: DVD5 R5
Качество видео: DVDRip
Формат видео: AVI

Видео: 688x512 (4:3), 25 fps, XviD ~ 1740 kbps avg, 0.198 bit/pixel
Аудио: 48 kHz, Dolby Digital AC3 2.0, 192 kbps

Раздача от:
Общее
Полное имя : Troe.sutok.posle.bessmertiya.1963.DVDRip_[New-team]_by_AVP_Studio.avi
Формат : AVI
Формат/Информация : Audio Video Interleave
Размер файла : 1,09 Гбайт
Продолжительность : 1 ч. 20 м.
Общий поток : 1942 Кбит/сек
Программа кодирования : VirtualDubMod 1.5.10.3 | www.virtualdub-fr.org || (build 2550/release)
Библиотека кодирования : VirtualDubMod build 2550/release

Видео
Идентификатор : 0
Формат : MPEG-4 Visual
Профиль формата : Advanced Simple@L5
Параметр BVOP формата : 1
Параметр QPel формата : Нет
Параметр GMC формата : Без точки перехода
Параметр матрицы формата : Выборочная
Идентификатор кодека : XVID
Идентификатор кодека/Подсказка : XviD
Продолжительность : 1 ч. 20 м.
Битрейт : 1740 Кбит/сек
Ширина : 688 пикселей
Высота : 512 пикселей
Соотношение сторон : 4:3
Частота кадров : 25,000 кадров/сек
Цветовое пространство : YUV
Субдискретизация насыщенности : 4:2:0
Битовая глубина : 8 бит
Тип развёртки : Прогрессивная
Метод сжатия : С потерями
Бит/(Пиксели*Кадры) : 0.198
Размер потока : 1000 Мбайт (90%)
Библиотека кодирования : XviD 73

Аудио
Идентификатор : 1
Формат : AC-3
Формат/Информация : Audio Coding 3
Расширение режима : CM (complete main)
Параметр Endianness формата : Big
Идентификатор кодека : 2000
Продолжительность : 1 ч. 20 м.
Вид битрейта : Постоянный
Битрейт : 192 Кбит/сек
Каналы : 2 канала
Расположение каналов : Front: L R
Частота : 48,0 КГц
Метод сжатия : С потерями
Размер потока : 110 Мбайт (10%)
Выравнивание : Разделение по промежуткам
Продолжительность промежутка : 40 мс. (1,00 видеокадр)
Время предзагрузки промежутка : 500 мс
pb.wtf



Скачать Трое суток после бессмертия через торрент http://i1.imageban.ru/out/2015/11/12/cd91e1cdf5a617f3d3daa8f453a14899.png Скачать фильм Трое суток после бессмертия через торрент бесплантно в хорошем качестве Описание:Идет 250-й день обороны Севастополя. На окраине разбомбленного города, без рации и с горсткой боеприпасов, из последних сил ... 10 10 1
Торрент: Зарегистрирован [2015-11-12 10:35] · скачан: 32 раз
Статус: √ проверено
Размер: 1.09 GB
Как cкачать? Как скачать Трое суток после бессмертия через торрент | qTorrent

% Раздел Тема Автор DL S | L
Кино СССР [ 1.09 GB ] Трое суток после бессмертия [1963 СССР военный история DVDRip-AVC от AVP Studio] AVP Studio Скачать
1 | 0
Кино СССР [ 745 MB ] Трое суток после бессмертия [1963 СССР военный история DVDRip от AVP Studio] AVP Studio Скачать
1 | 0


>> Регистрируемся здесь <<






Отзывы и комментарии о схеме читаем и пишем здесь: ---> Отзывы и комментарии о схеме

Новые благодарочки в телеграм довольных пользователей:
скриншот   скриншот   скриншот   скриншот   скриншот
    Дорогой пользователь! Огромная просьба, поблагодарите релизера, оцените раздачу и оставьте свои комментарий, если Вы скачали Трое суток после бессмертия через торрент бесплатно! Внесите свою лепту в развитие PiratBit!
    Комментировать посты могут только пользователи прошедшие не сложную регистрацию
    Показать сообщения:    

    Трое суток после бессмертия через торрент
    Скачать бесплатно Трое суток после бессмертия
    Трое суток после бессмертия скачать торрент
    Трое суток после бессмертия смотреть онлайн
    Cкачать фильм Трое суток после бессмертия бесплатно
    Трое суток после бессмертия скачать торрент в хорошем качестве
    Трое суток после бессмертия смотреть онлайн бесплатно в хорошем качестве


    Вы не можете начинать темы
    Вы не можете отвечать на сообщения
    Вы не можете редактировать свои сообщения
    Вы не можете удалять свои сообщения
    Вы не можете голосовать в опросах
    Вы не можете прикреплять файлы к сообщениям
    Вы можете скачивать файлы