новый адрес
Мега распродажа FORZA HORIZON 4 ULTIMATE+ВСЕ DLC+ОНЛАЙН всего за 499р. 349 руб. (супер цена). Внимание количество ограничено!!!

iTunes

1+1

iTunes

мы

iTunes

1

iTunes

Чернобыль

iTunes

Ральф против интернета

Лицензия

ПШазам

Лицензия

Игра престолов

Лицензия

30
pack

ВАЖНО

!!Акция!!

Alien_RageХит недели

RePack

Resident Evil 21

ИГРА 18+

pack

RePack

Metro:Exodus

!!Акция!!

Alien_Rage

RePack

fifa19

RePack

Assassins Creed: Odyssey

RePack

NEED FOR SPEED™ PAYBACK

3 сезон

9 сезон

Бесстыжие 9 сезон

Все сериалы

все сериалы на PB.wtf

RePack

FAR CRY 5
Ребята, катастрофически не хватает 1900р. для оплаты серверов за Октябрь (всвязи с блокировками трафик упал в 3 раза), 1-2р., выручайте.
  

Трое суток после бессмертия (Владимир Довгань) [1963, СССР, военный, история, DVDRip от AVP Studio] pb.wtf

Трое суток после бессмертия через торрент pb.wtf

Размер: 745 MB | Добавлен: 4 года назад | Торрент скачан:59 раз
Скачать  

12-11-2015 10:36 Трое суток после бессмертия Скачать торрент  

Трое суток после бессмертия
Страна: СССР
Производство: Киностудия им. А. Довженко

Жанр: военный, история
Год выпуска: 1963
Продолжительность: 01:20:23

Перевод: Не требуется
Cубтитры: нет
Оригинальная аудиодорожка: русский

Режиссер: Владимир Довгань

В ролях:
Владимир Заманский, Николай Крюков, Георгий Юматов, Геннадий Юхтин, Александр Мовчан, Галина Ляпина, Лилия Калачева, Альберт Акчурин, Леонид Данчишин, Михаил Семенихин, Генаят Кенжехан-Улы, Сергей Кулинич, Виктор Колодный, Валерий Мышастый, Ира Пухтеева, Витя Власов, Лилия Дзюба...
Полный список актёров

Описание:
Идет 250-й день обороны Севастополя. На окраине разбомбленного города, без рации и с горсткой боеприпасов, из последних сил держатся 12 бойцов Советской армии. С ними в укрытии — раненые, женщины и дети. Сообщение Совинформбюро о том, что Севастополь оставлен советскими войсками, открывает им суровую правду — теперь они один на один с врагом. Их единственная надежда — пробиться к морю, но какой ценой дастся доблестным солдатам путь из огненного ада длиной в четыре героических дня?

Источник: DVD5 R5
Качество видео: DVDRip
Формат видео: AVI

Видео: 640x480 (4:3), 25 fps, XviD ~ 1159 kbps avg, 0.151 bit/pixel
Аудио: 48 kHz, MP3 2.0, 128 kbps

Раздача от:
Общее
Полное имя : Troe.sutok.posle.bessmertiya.1963.DVDRip-745_[New-team]_by_AVP_Studio.avi
Формат : AVI
Формат/Информация : Audio Video Interleave
Размер файла : 745 Мбайт
Продолжительность : 1 ч. 20 м.
Общий поток : 1297 Кбит/сек
Программа кодирования : VirtualDubMod 1.5.10.3 | www.virtualdub-fr.org || (build 2550/release)
Библиотека кодирования : VirtualDubMod build 2550/release

Видео
Идентификатор : 0
Формат : MPEG-4 Visual
Профиль формата : Advanced Simple@L5
Параметр BVOP формата : 1
Параметр QPel формата : Нет
Параметр GMC формата : Без точки перехода
Параметр матрицы формата : Выборочная
Идентификатор кодека : XVID
Идентификатор кодека/Подсказка : XviD
Продолжительность : 1 ч. 20 м.
Битрейт : 1159 Кбит/сек
Ширина : 640 пикселей
Высота : 480 пикселей
Соотношение сторон : 4:3
Частота кадров : 25,000 кадров/сек
Цветовое пространство : YUV
Субдискретизация насыщенности : 4:2:0
Битовая глубина : 8 бит
Тип развёртки : Прогрессивная
Метод сжатия : С потерями
Бит/(Пиксели*Кадры) : 0.151
Размер потока : 666 Мбайт (89%)
Библиотека кодирования : XviD 73

Аудио
Идентификатор : 1
Формат : MPEG Audio
Версия формата : Version 1
Профиль формата : Layer 3
Идентификатор кодека : 55
Идентификатор кодека/Подсказка : MP3
Продолжительность : 1 ч. 20 м.
Вид битрейта : Постоянный
Битрейт : 128 Кбит/сек
Каналы : 2 канала
Частота : 48,0 КГц
Метод сжатия : С потерями
Размер потока : 73,6 Мбайт (10%)
Выравнивание : Соединение по промежуткам
Продолжительность промежутка : 40 мс. (1,00 видеокадр)
Время предзагрузки промежутка : 504 мс.
Библиотека кодирования : LAME3.99r
Настройки программы : -m s -V 4 -q 2 -lowpass 17 -b 128
pb.wtf



Скачать Трое суток после бессмертия через торрент http://i1.imageban.ru/out/2015/11/12/cd91e1cdf5a617f3d3daa8f453a14899.png Скачать фильм Трое суток после бессмертия через торрент бесплантно в хорошем качестве Описание:Идет 250-й день обороны Севастополя. На окраине разбомбленного города, без рации и с горсткой боеприпасов, из последних сил ... 5 10 1
Торрент: Зарегистрирован [2015-11-12 10:36] · скачан: 59 раз
Статус: √ проверено
Размер: 745 MB
Как cкачать? Как скачать Трое суток после бессмертия через торрент | qTorrent

% Раздел Тема Автор DL S | L
Кино СССР [ 1.09 GB ] Трое суток после бессмертия [1963 СССР военный история DVDRip-AVC от AVP Studio] AVP Studio Скачать
1 | 0
Кино СССР [ 1.09 GB ] Трое суток после бессмертия [1963 СССР военный история DVDRip от AVP Studio] AVP Studio Скачать
1 | 0


>> Регистрируемся здесь <<






Отзывы и комментарии о схеме читаем и пишем здесь: ---> Отзывы и комментарии о схеме

Новые благодарочки в телеграм довольных пользователей:
скриншот   скриншот   скриншот   скриншот   скриншот
    Дорогой пользователь! Огромная просьба, поблагодарите релизера, оцените раздачу и оставьте свои комментарий, если Вы скачали Трое суток после бессмертия через торрент бесплатно! Внесите свою лепту в развитие PiratBit!
    Комментировать посты могут только пользователи прошедшие не сложную регистрацию
    Показать сообщения:    

    Трое суток после бессмертия через торрент
    Скачать бесплатно Трое суток после бессмертия
    Трое суток после бессмертия скачать торрент
    Трое суток после бессмертия смотреть онлайн
    Cкачать фильм Трое суток после бессмертия бесплатно
    Трое суток после бессмертия скачать торрент в хорошем качестве
    Трое суток после бессмертия смотреть онлайн бесплатно в хорошем качестве


    Вы не можете начинать темы
    Вы не можете отвечать на сообщения
    Вы не можете редактировать свои сообщения
    Вы не можете удалять свои сообщения
    Вы не можете голосовать в опросах
    Вы не можете прикреплять файлы к сообщениям
    Вы можете скачивать файлы