Ссылка на приватное зеркало всего за 1$. Внимание количество ограничено!!!

OK

1+1

iTunes

мы

OK

1

WEB-DLRip

Джокер

Пифагор

Ведьмак / The Witcher сериал

iTunes

ПШазам

ОК

Оно 2

iTunes

30
pack

Вам бонус

ВАЖНО

!!Акция!!

Alien_RageХит недели

RePack

Resident Evil 21

ИГРА 18+

pack

RePack

jed

RePack

fifa19

RePack

Assassins Creed: Odyssey

RePack

NEED FOR SPEED™ PAYBACK

4 сезон

9 сезон

Бесстыжие 9 сезон

Все сериалы

все сериалы на PB.wtf

RePack

FAR CRY 5
  

Ультраамериканцы / American Ultra (Нима Нуризаде / Nima Nourizadeh) [2015, США, Швейцария, боевик, комедия, BDRip-AVC от sokol_ok] DUB Лицензия pb.wtf

Ультраамериканцы через торрент pb.wtf

Раздают: 2 [ 0.3 KB/s ]
Размер: 1.46 GB | Добавлен: 3 года 9 мес. назад | Торрент скачан:265 раз
Скачать  

12-11-2015 16:14 Ультраамериканцы Скачать торрент  

Ультраамериканцы
American Ultra

«Нет ничего опаснее обкуренного киллера с амнезией»


Страна: США, Швейцария
Жанр: боевик, комедия

Год выпуска: 2015
Продолжительность: 01:35:41

Перевод: Профессиональный (полное дублирование) [Лицензия Blu-ray RUS]
Субтитры: русские (Матвеев), английские, английские (SDH)
Оригинальная аудиодорожка: нет

Режиссер: Нима Нуризаде / Nima Nourizadeh

В ролях: Джесси Айзенберг, Кристен Стюарт, Тофер Грейс, Конни Бриттон, Уолтон Гоггинс, Джон Легуизамо, Билл Пуллман, Тони Хейл, Стюарт Грир, Майкл Пападжон, Моник Гэндертон, Нэш Эдгертон

Описание:
А вдруг ты тоже спецагент, обладающий уникальной боевой подготовкой и сверхинтеллектом? Но просто ты забыл об этом... Как Майк Хоуэлл, лоботряс из супермаркета, который безмятежно читает комиксы и курит дурь пока славное прошлое не настигает его. И обдолбанный агент N1 становится мишенью N1. Релиз:

Автор рипа: Stalker oK

Сэмпл

Качество видео: BDRip-AVC [Blu-ray Remux 1080p]
Формат видео: MKV
Видео кодек: AVC
Аудио кодек: AC3
Видео: 1739 Кбит/сек, 1012x546 (1.853), 23,976 кадр/сек, AVC
Аудио: русский, 448 Кбит/сек, 48 КГц, 16 бит, 5.1, AC3
Навигация по главам: есть

Общее
Уникальный идентификатор : 231864451941313786269508037014321106709 (0xAE6F781726E7FC0BA873488ED7B00F15)
Полное имя : M:\Rips\American Ultra\American.Ultra.2015.BDRip-AVC.Dub.1.45Gb.stalkerok.new-team.mkv
Формат : Matroska
Версия формата : Version 4 / Version 2
Размер файла : 1,46 Гбайт
Продолжительность : 1 ч. 35 м.
Общий поток : 2183 Кбит/сек
Название фильма : American Ultra (2015) (New-Team) (Rip by Stalker oK)
Дата кодирования : UTC 2016-04-23 10:28:58
Программа кодирования : mkvmerge v8.6.1 ('Flying') 64bit
Библиотека кодирования : libebml v1.3.3 + libmatroska v1.4.4

Видео
Идентификатор : 1
Формат : AVC
Формат/Информация : Advanced Video Codec
Профиль формата : High@L4.1
Параметр CABAC формата : Да
Параметр ReFrames формата : 13 кадров
Идентификатор кодека : V_MPEG4/ISO/AVC
Продолжительность : 1 ч. 35 м.
Битрейт : 1739 Кбит/сек
Ширина : 1012 пикселей
Высота : 546 пикселей
Соотношение сторон : 1,85:1
Режим частоты кадров : Постоянный
Частота кадров : 23,976 (24000/1001) кадра/сек
Цветовое пространство : YUV
Субдискретизация насыщенности : 4:2:0
Битовая глубина : 8 бит
Тип развёртки : Прогрессивная
Бит/(Пиксели*Кадры) : 0.131
Размер потока : 1,16 Гбайт (79%)
Заголовок : American Ultra (2015) (New-Team) (Rip by Stalker oK)
Библиотека кодирования : x264 core 146 r2538kMod 121396c
Настройки программы : cabac=1 / ref=13 / deblock=1:-3:-3 / analyse=0x3:0x133 / me=umh / subme=11 / psy=1 / fade_compensate=0.00 / psy_rd=1.00:0.12 / mixed_ref=1 / me_range=48 / chroma_me=1 / trellis=2 / 8x8dct=1 / cqm=0 / deadzone=21,11 / fast_pskip=0 / chroma_qp_offset=-3 / threads=12 / lookahead_threads=3 / sliced_threads=0 / nr=0 / decimate=0 / interlaced=0 / bluray_compat=0 / constrained_intra=0 / fgo=0 / bframes=14 / b_pyramid=2 / b_adapt=2 / b_bias=0 / direct=3 / weightb=1 / open_gop=0 / weightp=2 / keyint=240 / keyint_min=23 / scenecut=40 / intra_refresh=0 / rc_lookahead=60 / rc=2pass / mbtree=0 / bitrate=1739 / ratetol=1.0 / qcomp=0.70 / qpmin=0 / qpmax=69 / qpstep=4 / cplxblur=20.0 / qblur=0.5 / vbv_maxrate=50000 / vbv_bufsize=62500 / nal_hrd=none / filler=0 / ip_ratio=1.40 / pb_ratio=1.30 / aq=3:0.90
Default : Да
Forced : Нет

Аудио
Идентификатор : 2
Формат : AC-3
Формат/Информация : Audio Coding 3
Расширение режима : CM (complete main)
Параметр Endianness формата : Big
Идентификатор кодека : A_AC3
Продолжительность : 1 ч. 35 м.
Вид битрейта : Постоянный
Битрейт : 448 Кбит/сек
Каналы : 6 каналов
Расположение каналов : Front: L C R, Side: L R, LFE
Частота : 48,0 КГц
Частота кадров : 31,250 кадров/сек (1536 spf)
Метод сжатия : С потерями
Размер потока : 307 Мбайт (21%)
Язык : Russian
Default : Да
Forced : Нет

Текст #1
Идентификатор : 3
Формат : UTF-8
Идентификатор кодека : S_TEXT/UTF8
Идентификатор кодека/Информация : UTF-8 Plain Text
Продолжительность : 1 ч. 29 м.
Битрейт : 86 бит/сек
Count of elements : 1216
Размер потока : 57,0 Кбайт (0%)
Заголовок : Матвеев
Язык : Russian
Default : Нет
Forced : Нет

Текст #2
Идентификатор : 4
Формат : UTF-8
Идентификатор кодека : S_TEXT/UTF8
Идентификатор кодека/Информация : UTF-8 Plain Text
Продолжительность : 1 ч. 26 м.
Битрейт : 60 бит/сек
Count of elements : 1172
Размер потока : 38,5 Кбайт (0%)
Заголовок : English
Язык : English
Default : Нет
Forced : Нет

Текст #3
Идентификатор : 5
Формат : UTF-8
Идентификатор кодека : S_TEXT/UTF8
Идентификатор кодека/Информация : UTF-8 Plain Text
Продолжительность : 1 ч. 30 м.
Битрейт : 64 бит/сек
Count of elements : 1441
Размер потока : 42,9 Кбайт (0%)
Заголовок : English SDH
Язык : English
Default : Нет
Forced : Нет

Меню
00:00:00.000 : en:Chapter 1
00:03:47.727 : en:Chapter 2
00:09:28.985 : en:Chapter 3
00:16:40.581 : en:Chapter 4
00:22:15.916 : en:Chapter 5
00:26:45.979 : en:Chapter 6
00:33:28.631 : en:Chapter 7
00:37:54.230 : en:Chapter 8
00:42:31.047 : en:Chapter 9
00:48:55.849 : en:Chapter 10
00:55:13.393 : en:Chapter 11
01:00:11.273 : en:Chapter 12
01:06:12.300 : en:Chapter 13
01:10:14.667 : en:Chapter 14
01:18:38.921 : en:Chapter 15
01:25:14.692 : en:Chapter 16
pb.wtf



Скачать Ультраамериканцы через торрент http://i72.fastpic.ru/big/2015/0531/46/68ef8a2783b58e5344cc30bbd3f1b046.png Скачать фильм Ультраамериканцы через торрент бесплантно в хорошем качестве Описание:А вдруг ты тоже спецагент, обладающий уникальной боевой подготовкой и сверхинтеллектом? Но просто ты забыл об этом... Как Майк ... 9.1 10 10
Info! Золотая раздача, скачанное не засчитывается.
Торрент: Зарегистрирован [2016-04-23 11:33] · скачан: 265 раз
Статус: √ проверено
Размер: 1.46 GB
Как cкачать? Как скачать Ультраамериканцы через торрент | qTorrent

% Раздел Тема Автор DL S | L
Фильмы 2015 [DVDrip, WEB-DLRip, HDrip] [ 2.18 GB ] Ультраамериканцы / American Ultra [2015 Швейцария BDRip-AVC от sokol_ok] DUB sokol_ok Скачать
2 | 0
Фильмы 2015 [DVDrip, WEB-DLRip, HDrip] [ 1.46 GB ] Ультраамериканцы / American Ultra [2015 BDRip-AVC] DUB potroks Скачать
2 | 0
Фильмы 2015 [DVDrip, WEB-DLRip, HDrip] [ 2.18 GB ] Ультраамериканцы / American Ultra [2015 BDRip-AVC] DUB potroks Скачать
2 | 0
Фильмы 2015 [DVDrip, WEB-DLRip, HDrip] [ 1.37 GB ] Ультраамериканцы / American Ultra [2015 HDRip] killermax2013 Скачать
1 | 0

28-11-2019 20:33  

Отключить всю рекламу на сайте

23-04-2016 11:34 Ультраамериканцы Скачать торрент  

Торрент файл перезалит. Замена звука iTunes 384 kbps на Blu-ray RUS 448 kbps, добавлены русские субтитры.pb.wtf



    Дорогой пользователь! Огромная просьба, поблагодарите релизера, оцените раздачу и оставьте свои комментарий, если Вы скачали Ультраамериканцы через торрент бесплатно! Внесите свою лепту в развитие PiratBit!
    Комментировать посты могут только пользователи прошедшие не сложную регистрацию
    Показать сообщения:    

    Ультраамериканцы через торрент
    Скачать бесплатно Ультраамериканцы
    Ультраамериканцы скачать торрент
    Ультраамериканцы смотреть онлайн
    Cкачать фильм Ультраамериканцы бесплатно
    Ультраамериканцы скачать торрент в хорошем качестве
    Ультраамериканцы смотреть онлайн бесплатно в хорошем качестве


    Вы не можете начинать темы
    Вы не можете отвечать на сообщения
    Вы не можете редактировать свои сообщения
    Вы не можете удалять свои сообщения
    Вы не можете голосовать в опросах
    Вы не можете прикреплять файлы к сообщениям
    Вы можете скачивать файлы