новый адрес пиратбит piratbit
MEGA NEWS Получи личный уникальный адрес сайта и защити себя от блокировок. Внимание количество ограничено!!!

iTunes

1+1

iTunes

мы

iTunes

1

iTunes

Чернобыль

iTunes

Ральф против интернета

Лицензия

ПШазам

Лицензия

Игра престолов

Лицензия

30
pack

ВАЖНО

!!Акция!!

Alien_RageХит недели

RePack

Resident Evil 21

ИГРА 18+

pack

RePack

Metro:Exodus

!!Акция!!

Alien_Rage

RePack

fifa19

RePack

Assassins Creed: Odyssey

RePack

NEED FOR SPEED™ PAYBACK

3 сезон

9 сезон

Бесстыжие 9 сезон

Все сериалы

все сериалы на PB.wtf

RePack

FAR CRY 5
Ребята, катастрофически не хватает 1900р. для оплаты серверов за АВГУСТ (всвязи с блокировками трафик упал в 3 раза), 1-2р., выручайте.
  

Своя тусовка / The In Crowd (Мэри Ламберт ) [2000, триллер, драма, детектив, DVDRip, Дублированный, профессиональный (многоголосый закадровый)] pb.wtf

Своя тусовка через торрент pb.wtf

Размер: 2.04 GB | Добавлен: 3 года 11 мес. назад | Торрент скачан:9 раз
Скачать  

12-11-2015 19:22 Своя тусовка Скачать торрент  

Своя тусовка / The In Crowd
Год выпуска: 2000
Страна: США
Жанр: триллер, драма, детектив
Продолжительность: 01:41:50
Перевод: Дублированный, профессиональный (многоголосый закадровый)
Режиссер: Мэри Ламберт
В ролях:

Сьюзэн Уорд (Brittany), Лори Хёринг (Adrien), Мэттью Сеттл (Matt), Нэйтан Бекстон (Bobby), Тесс Харпер (Dr. Amanda Giles), Лори Фортье (Kelly), Ким Мерфи (Joanne), Джей Р. Фергюсон (Andy), А.Дж. Бакли (Wayne), Кэтрин Таун (Morgan), Чарли Финн (Greg), Этан Эриксон (Tom)
Описание:
Она уничтожит всех, чтобы стать первой! Вы в первый раз в Клиффмонте? У вас впереди целое лето, чтобы узнать его. Теннис, гольф, скейтборд, напряженные предчувствия, странные ребята, ревность, убийство - выбирайте вид спорта по душе.
Рейтинг:

MPAA: PG-13 - Детям до 13 лет просмотр не желателен
Качество: DVDRip
Формат: AVI
Видео: XviD, 720x416 (16:9), 2079 kbps, 25 fps, 0,278 bpp
Аудио №1: AC3 / 2.0 / 48 kHz / 192 kbps / 16 bit DUB
Аудио №2: AC3 / 2.0 / 48 kHz / 192 kbps / 16 bit MVO
Аудио №3: AC3 / 5.1 / 48 kHz / 384 kbps / 16 bit ENG

Код:

Общее
Полное имя                               : D:\download\Своя тусовка.avi
Формат                                   : AVI
Формат/Информация                        : Audio Video Interleave
Профиль формата                          : OpenDML
Размер файла                             : 2,04 Гбайт
Продолжительность                        : 1 ч. 41 м.
Общий поток                              : 2873 Кбит/сек
Название фильма                          : The In Crowd / Своя тусовка (2000)
Программа кодирования                    : VirtualDubMod 1.5.10.2 (build 2540/release)
Библиотека кодирования                   : VirtualDubMod build 2540/release

Видео
Идентификатор                            : 0
Формат                                   : MPEG-4 Visual
Профиль формата                          : Advanced Simple@L5
Параметр BVOP формата                    : 1
Параметр QPel формата                    : Нет
Параметр GMC формата                     : Без точки перехода
Параметр матрицы формата                 : Выборочная
Идентификатор кодека                     : XVID
Идентификатор кодека/Подсказка           : XviD
Продолжительность                        : 1 ч. 41 м.
Битрейт                                  : 2079 Кбит/сек
Ширина                                   : 720 пикселей
Высота                                   : 416 пикселей
Соотношение сторон                       : 1,731
Частота кадров                           : 25,000 кадров/сек
Цветовое пространство                    : YUV
Субдискретизация насыщенности            : 4:2:0
Битовая глубина                          : 8 бит
Тип развёртки                            : Прогрессивная
Метод сжатия                             : С потерями
Бит/(Пиксели*Кадры)                      : 0.278
Размер потока                            : 1,48 Гбайт (72%)
Библиотека кодирования                   : XviD 1.2.0SMP (UTC 2006-01-08)

Аудио #1
Идентификатор                            : 1
Формат                                   : AC-3
Формат/Информация                        : Audio Coding 3
Расширение режима                        : CM (complete main)
Параметр Endianness формата              : Big
Идентификатор кодека                     : 2000
Продолжительность                        : 1 ч. 41 м.
Вид битрейта                             : Постоянный
Битрейт                                  : 192 Кбит/сек
Каналы                                   : 2 канала
Расположение каналов                     : Front: L R
Частота                                  : 48,0 КГц
Битовая глубина                          : 16 бит
Метод сжатия                             : С потерями
Размер потока                            : 140 Мбайт (7%)
Выравнивание                             : Разделение по промежуткам
Продолжительность промежутка             : 40  мс. (1,00 видеокадр)
Время предзагрузки промежутка            : 500  мс.
Заголовок                                : Профессиональный (полное дублирование)

Аудио #2
Идентификатор                            : 2
Формат                                   : AC-3
Формат/Информация                        : Audio Coding 3
Расширение режима                        : CM (complete main)
Параметр Endianness формата              : Big
Идентификатор кодека                     : 2000
Продолжительность                        : 1 ч. 41 м.
Вид битрейта                             : Постоянный
Битрейт                                  : 192 Кбит/сек
Каналы                                   : 2 канала
Расположение каналов                     : Front: L R
Частота                                  : 48,0 КГц
Битовая глубина                          : 16 бит
Метод сжатия                             : С потерями
Размер потока                            : 140 Мбайт (7%)
Выравнивание                             : Разделение по промежуткам
Продолжительность промежутка             : 40  мс. (1,00 видеокадр)
Время предзагрузки промежутка            : 500  мс.
Заголовок                                : Профессиональный (многоголосый, закадровый)

Аудио #3
Идентификатор                            : 3
Формат                                   : AC-3
Формат/Информация                        : Audio Coding 3
Расширение режима                        : CM (complete main)
Параметр Endianness формата              : Big
Идентификатор кодека                     : 2000
Продолжительность                        : 1 ч. 41 м.
Вид битрейта                             : Постоянный
Битрейт                                  : 384 Кбит/сек
Каналы                                   : 6 каналов
Расположение каналов                     : Front: L C R, Side: L R, LFE
Частота                                  : 48,0 КГц
Битовая глубина                          : 16 бит
Метод сжатия                             : С потерями
Размер потока                            : 280 Мбайт (13%)
Выравнивание                             : Разделение по промежуткам
Продолжительность промежутка             : 40  мс. (1,00 видеокадр)
Время предзагрузки промежутка            : 500  мс.
Заголовок                                : Английский

скриншот  скриншот  скриншот  
pb.wtf



Скачать Своя тусовка через торрент http://pic1.kartinco.top/images/10/5rhkn.jpg Скачать фильм Своя тусовка через торрент бесплантно в хорошем качестве Описание: Она уничтожит всех, чтобы стать первой! Вы в первый раз в Клиффмонте? У вас впереди целое лето, чтобы узнать его. Теннис, гольф, ... 5 10 1
Торрент: Зарегистрирован [2015-11-12 19:22] · скачан: 9 раз
Статус: √ проверено
Размер: 2.04 GB
Как cкачать? Как скачать Своя тусовка через торрент | qTorrent


>> Регистрируемся здесь <<






Отзывы и комментарии о схеме читаем и пишем здесь: ---> Отзывы и комментарии о схеме

Новые благодарочки в телеграм довольных пользователей:
скриншот   скриншот   скриншот   скриншот   скриншот
    Дорогой пользователь! Огромная просьба, поблагодарите релизера, оцените раздачу и оставьте свои комментарий, если Вы скачали Своя тусовка через торрент бесплатно! Внесите свою лепту в развитие PiratBit!
    Комментировать посты могут только пользователи прошедшие не сложную регистрацию
    Показать сообщения:    

    Своя тусовка через торрент
    Скачать бесплатно Своя тусовка
    Своя тусовка скачать торрент
    Своя тусовка смотреть онлайн
    Cкачать фильм Своя тусовка бесплатно
    Своя тусовка скачать торрент в хорошем качестве
    Своя тусовка смотреть онлайн бесплатно в хорошем качестве


    Вы не можете начинать темы
    Вы не можете отвечать на сообщения
    Вы не можете редактировать свои сообщения
    Вы не можете удалять свои сообщения
    Вы не можете голосовать в опросах
    Вы не можете прикреплять файлы к сообщениям
    Вы можете скачивать файлы